VERSION	0.00.00	1.03.00
FES_MODE	0
BPM_DEF	 90.000	 90.000	 90.000	 90.000
MET_DEF	4	4
RESOLUTION	384
CLK_DEF	384
COMPATIBLE_CODE	MA2

BPM	0	0	 90.000
MET	0	0	4	4

TAP	2	0	0
TAP	2	192	0
TAP	3	0	1
TAP	3	192	1
TAP	4	0	2
TAP	4	192	2
TAP	5	0	3
TAP	5	0	4
TAP	5	192	3
TAP	5	192	4
TAP	6	0	4
TAP	6	192	4
TAP	7	0	5
TAP	7	192	5
TAP	8	0	6
TAP	8	192	6
TAP	9	0	0
TAP	9	0	7
TAP	9	192	0
TAP	9	192	7
BRK	10	0	0
BRK	10	0	7
HLD	11	0	7	384
HLD	13	0	0	384
TAP	15	0	7
TAP	15	192	7
TAP	16	0	6
TAP	16	192	6
TAP	17	0	5
TAP	17	192	5
TAP	18	0	4
TAP	18	192	3
TAP	18	192	4
TTP	19	0	2	B	0	L1
TTP	19	192	1	B	0	L1
TTP	20	0	0	B	0	L1
TTP	20	192	7	B	0	L1
TTP	21	0	6	B	0	L1
TTP	21	192	5	B	0	L1
HLD	22	0	3	192
HLD	22	0	4	192
TTP	23	0	5	B	0	L1
TTP	23	192	6	B	0	L1
TTP	24	0	7	B	0	L1
TTP	24	192	0	B	0	L1
TTP	25	0	1	B	0	L1
TTP	25	192	2	B	0	L1
THO	26	0	0	384	C	1	L1
HLD	28	0	3	192
HLD	29	0	2	192
HLD	30	0	1	192
TAP	31	0	0
TAP	31	96	0
TAP	31	192	7
BRK	31	288	7
HLD	32	0	7	192
HLD	33	0	6	192
HLD	34	0	5	192
HLD	35	0	3	192
HLD	35	0	4	192
TAP	36	0	2
TAP	36	0	3
TAP	36	192	2
TAP	36	192	3
TAP	37	0	2
TAP	37	96	3
TAP	37	192	2
TAP	38	0	4
TAP	38	0	5
TAP	38	192	4
TAP	38	192	5
TAP	39	0	5
TAP	39	96	4
TAP	39	192	5
TAP	40	0	2
TAP	40	0	3
TAP	40	192	2
TAP	40	192	3
TAP	41	0	4
TAP	41	96	3
TAP	41	192	4
HLD	42	0	4	384
HLD	42	0	5	384
TTP	44	0	3	B	0	L1
TTP	44	0	4	B	0	L1
TTP	44	192	2	B	0	L1
TTP	44	192	5	B	0	L1
THO	45	0	0	384	C	1	L1
TAP	47	0	7
TAP	47	96	7
TAP	47	192	7
TAP	48	0	6
TAP	48	96	6
TAP	48	192	6
TAP	49	0	5
TAP	49	96	5
TAP	49	192	5
HLD	50	0	4	192
TAP	51	0	3
TAP	51	96	3
TAP	51	192	3
TAP	52	0	2
TAP	52	96	2
TAP	52	192	2
TAP	53	0	1
TAP	53	96	1
TAP	53	192	1
HLD	54	0	0	192
TAP	55	0	7
TAP	55	192	7
TAP	56	0	6
TAP	56	192	6
TAP	57	0	5
TAP	57	192	5
STR	58	0	4
SI_	58	0	4	96	288	0

T_REC_TAP	77
T_REC_BRK	3
T_REC_XTP	0
T_REC_HLD	16
T_REC_XHO	0
T_REC_STR	1
T_REC_BST	0
T_REC_XST	0
T_REC_TTP	16
T_REC_THO	2
T_REC_SLD	1
T_REC_ALL	116
T_NUM_TAP	94
T_NUM_BRK	3
T_NUM_HLD	18
T_NUM_SLD	1
T_NUM_ALL	116
T_JUDGE_TAP	97
T_JUDGE_HLD	192
T_JUDGE_SLD	1
T_JUDGE_ALL	290
TTM_EACHPAIRS	15
TTM_SCR_TAP	47000
TTM_SCR_BRK	7800
TTM_SCR_HLD	18000
TTM_SCR_SLD	1500
TTM_SCR_ALL	74300
TTM_SCR_S	71800
TTM_SCR_SS	74000
TTM_RAT_ACV	10040

