VERSION	0.00.00	1.03.00
FES_MODE	0
BPM_DEF	190.000	190.000	190.000	190.000
MET_DEF	4	4
RESOLUTION	384
CLK_DEF	384
COMPATIBLE_CODE	MA2

BPM	0	0	190.000
MET	0	0	4	4

STR	1	192	3
SI_	1	192	3	96	48	0
STR	1	192	4
SI_	1	192	4	96	48	7
XHO	2	0	2	96
XHO	2	0	7	96
XHO	2	144	1	96
XHO	2	144	6	96
XHO	2	288	0	288
XST	2	288	5
SCL	2	288	5	96	192	7
TAP	3	240	1
TAP	3	288	0
TAP	3	336	7
XHO	4	0	3	96
XHO	4	0	6	96
XHO	4	144	2	96
XHO	4	144	5	96
XHO	4	288	1	288
XST	4	288	4
SXR	4	288	4	96	192	6
TAP	5	288	2
TAP	5	288	7
XHO	6	0	0	96
XHO	6	0	5	96
XHO	6	144	1	96
XHO	6	144	6	96
XST	6	288	2
SCR	6	288	2	96	192	0
XHO	6	288	7	288
TAP	7	288	3
TAP	7	288	6
XHO	8	0	1	96
XHO	8	0	4	96
XHO	8	144	2	96
XHO	8	144	5	96
XHO	8	288	3	288
XST	8	288	6
SXL	8	288	6	96	192	4
BRK	9	288	1
BRK	9	288	6
TAP	10	0	3
TAP	10	48	4
TAP	10	96	1
TAP	10	96	5
TAP	10	144	2
TAP	10	192	4
TAP	10	240	3
TAP	10	288	2
TAP	10	288	6
TAP	10	336	5
TAP	11	0	3
TAP	11	48	4
TAP	11	96	1
TAP	11	96	5
TAP	11	144	2
TAP	11	192	4
TAP	11	240	3
TAP	11	288	2
TAP	11	288	6
TAP	11	336	5
TAP	12	0	2
TAP	12	48	2
TAP	12	96	6
TAP	12	144	6
TAP	12	192	0
STR	12	240	0
SCL	12	240	0	96	144	2
HLD	12	336	6	192
TAP	13	144	7
BRK	13	192	7
XTP	13	288	1
XTP	13	288	5
TAP	14	0	0
TAP	14	48	7
TAP	14	96	2
TAP	14	96	6
TAP	14	144	1
TAP	14	192	7
TAP	14	240	0
TAP	14	288	1
TAP	14	288	5
TAP	14	336	6
TAP	15	0	0
TAP	15	48	7
TAP	15	96	2
TAP	15	96	6
TAP	15	144	1
TAP	15	192	7
TAP	15	240	0
TAP	15	288	1
TAP	15	288	5
TAP	15	336	6
XHO	16	0	3	96
XHO	16	0	7	96
XHO	16	144	2	96
XHO	16	144	4	96
XST	16	288	3
SXL	16	288	3	96	240	3
SXR	16	288	3	96	240	3
XTP	16	288	6
TAP	18	0	4
TAP	18	0	5
TAP	18	96	3
TAP	18	96	4
TAP	18	192	2
TAP	18	192	3
TAP	18	288	2
TAP	18	352	2
TAP	19	0	4
TAP	19	64	4
TAP	19	96	3
TAP	19	160	3
TAP	19	192	5
TAP	19	256	5
TAP	19	288	4
TAP	20	0	2
TAP	20	0	4
TAP	20	96	3
TAP	20	96	5
TAP	20	192	2
TAP	20	256	2
TAP	20	288	4
TAP	20	352	4
TAP	21	0	3
TAP	21	64	3
TAP	21	96	5
TAP	21	128	4
TAP	21	160	5
TAP	21	192	4
HLD	21	288	3	96
STR	21	288	6
SCL	21	288	6	96	96	3
TAP	22	96	2
XTP	22	192	1
XTP	22	192	4
TAP	22	288	5
TAP	22	352	5
TAP	23	0	3
TAP	23	64	3
TAP	23	96	4
TAP	23	160	4
TAP	23	192	2
TAP	23	288	1
TAP	23	288	3
TAP	24	0	3
TAP	24	0	5
TAP	24	64	5
TAP	24	96	3
TAP	24	128	4
TAP	24	160	3
TAP	24	192	4
STR	24	288	2
SXL	24	288	2	96	192	3
SLL	24	288	2	96	192	3
TTP	26	0	2	B	0	M1
TTP	26	0	2	E	0	M1
TTP	26	0	3	E	0	M1
TTP	26	96	5	B	0	M1
TTP	26	96	5	E	0	M1
TTP	26	96	6	E	0	M1
STR	26	192	0
SCR	26	192	0	96	96	4
TAP	26	192	7
HLD	27	0	5	192
TAP	27	192	3
TAP	27	288	5
STR	27	336	5
SXR	27	336	5	96	240	2
TAP	28	48	2
TAP	28	336	1
HLD	29	0	1	192
TAP	29	192	2
TAP	29	288	1
TAP	29	336	1
STR	30	48	0
SF_	30	48	0	96	144	4
HLD	31	0	5	288
TTP	31	96	0	B	0	M1
TTP	31	192	0	C	0	M1
TTP	31	288	4	B	0	M1
HLD	32	0	2	288
TTP	32	96	7	B	0	M1
TTP	32	192	0	C	0	M1
TTP	32	288	3	B	0	M1
TTP	33	0	0	B	0	M1
TTP	33	0	1	B	0	M1
TTP	33	96	6	B	0	M1
TTP	33	96	7	B	0	M1
TTP	33	192	4	B	0	M1
TTP	33	192	5	B	0	M1
TTP	33	288	2	B	0	M1
TTP	33	288	3	B	0	M1
TAP	34	0	1
TAP	34	48	1
TAP	34	96	4
TAP	34	144	4
TAP	34	192	2
TAP	34	216	3
TAP	34	240	2
BRK	34	288	0
BRK	34	288	5
XTP	35	0	0
XST	35	0	1
SI_	35	0	1	96	48	4
TAP	35	96	7
STR	35	192	6
SI_	35	192	6	96	48	2
TAP	35	192	7
TAP	35	288	1
HLD	35	336	1	96
STR	36	48	3
SCL	36	48	3	96	96	5
HLD	36	144	0	96
TAP	36	336	2
TAP	36	336	7
STR	37	0	2
SCR	37	0	2	96	96	5
TAP	37	0	7
STR	37	96	5
SCR	37	96	5	96	96	0
STR	37	192	0
SCR	37	192	0	96	96	3
TAP	37	288	6
HLD	37	336	6	96
TAP	38	48	5
TAP	38	96	4
HLD	38	144	3	96
TAP	38	240	4
TAP	38	288	5
TAP	38	336	6
TAP	39	0	6
TAP	39	0	7
TAP	39	48	5
TAP	39	96	6
TAP	39	96	7
TAP	39	144	0
STR	39	192	6
SI_	39	192	6	96	48	3
STR	39	192	7
SI_	39	192	7	96	48	3
TAP	40	0	0
TAP	40	0	1
TAP	40	48	2
TAP	40	96	0
TAP	40	96	1
TAP	40	144	7
STR	40	192	0
SI_	40	192	0	96	48	4
STR	40	192	1
SI_	40	192	1	96	48	4
XTP	41	0	2
XTP	41	0	6
TAP	41	96	3
TAP	41	96	5
TAP	41	144	4
TAP	41	192	3
TAP	41	240	2
TAP	41	288	1
STR	41	336	0
SI_	41	336	0	96	48	4
STR	42	48	5
SCR	42	48	5	96	72	2
TAP	42	144	0
BRK	42	288	1
BRK	42	288	6
XST	43	0	6
SI_	43	0	6	96	48	3
XTP	43	0	7
TAP	43	96	0
TAP	43	192	0
STR	43	192	1
SI_	43	192	1	96	48	5
TAP	43	288	6
HLD	43	336	6	96
STR	44	48	4
SCR	44	48	4	96	96	2
HLD	44	144	7	96
TAP	44	336	0
TAP	44	336	5
TAP	45	0	0
STR	45	0	5
SCL	45	0	5	96	96	2
STR	45	96	2
SCL	45	96	2	96	96	7
STR	45	192	7
SCL	45	192	7	96	96	4
TAP	45	288	1
HLD	45	336	1	96
TAP	46	48	2
TAP	46	96	3
HLD	46	144	4	96
TAP	46	240	3
TAP	46	288	2
TAP	46	336	1
TAP	47	0	0
TAP	47	0	5
XTP	47	96	2
XST	47	96	7
SI_	47	96	7	96	48	2
STR	47	192	1
SI_	47	192	1	96	48	4
TAP	47	288	6
STR	47	336	6
SXR	47	336	6	96	192	3
TAP	48	48	7
TAP	48	144	0
TAP	48	240	1
XTP	48	336	0
XTP	48	336	1
BST	49	0	2
SI_	49	0	2	96	48	4
XTP	49	96	5
BST	49	144	6
SI_	49	144	6	96	48	2
XTP	49	240	2
BST	49	288	1
SSR	49	288	1	96	192	5
TAP	50	288	3
TAP	50	288	4
TAP	51	0	1
TAP	51	48	1
TAP	51	96	2
TAP	51	96	4
TAP	51	144	1
TAP	51	192	6
TAP	51	240	6
TAP	51	288	3
TAP	51	288	5
TAP	51	336	6
TAP	52	0	0
TAP	52	48	0
TAP	52	96	7
TAP	52	144	7
HLD	52	192	2	48
HLD	52	240	3	48
HLD	52	288	4	48
TAP	52	336	5
TAP	53	48	0
TAP	53	72	7
TAP	53	96	0
TAP	53	144	6
TAP	53	192	3
TAP	53	240	3
TAP	53	288	4
TAP	53	336	4
TAP	54	0	1
TAP	54	48	0
TAP	54	96	7
TAP	54	144	6
TAP	54	192	4
TAP	54	192	5
TAP	54	240	6
TAP	54	288	2
TAP	54	288	3
TAP	54	336	1
STR	55	0	6
SI_	55	0	6	96	48	4
TAP	55	48	6
STR	55	96	0
SI_	55	96	0	96	48	2
TAP	55	144	0
STR	55	192	7
SI_	55	192	7	96	48	3
TAP	55	240	7
STR	55	288	0
SI_	55	288	0	96	48	2
TAP	55	336	0
STR	56	0	7
SI_	56	0	7	96	48	5
TAP	56	48	7
STR	56	96	1
SI_	56	96	1	96	48	3
TAP	56	144	1
STR	56	192	0
SI_	56	192	0	96	48	4
TAP	56	240	0
TAP	56	288	1
TAP	57	0	2
TAP	57	24	3
TAP	57	48	2
TAP	57	96	7
TAP	57	144	7
TAP	57	192	5
TAP	57	216	4
TAP	57	240	5
TAP	57	288	0
TAP	57	336	0
HLD	58	0	1	48
HLD	58	48	3	48
HLD	58	96	4	48
TAP	58	144	6
TAP	58	192	0
TAP	58	216	7
TAP	58	240	0
BRK	58	288	1
BRK	58	288	6
HLD	59	0	2	144
TAP	59	0	5
TAP	59	144	3
TAP	59	192	1
HLD	59	192	4	336
TAP	60	0	3
TAP	60	72	3
TAP	60	144	3
TAP	60	192	2
TAP	60	192	5
TAP	60	288	3
TAP	60	288	4
TAP	61	0	2
HLD	61	0	5	144
TAP	61	144	4
HLD	61	192	3	336
TAP	61	192	6
TAP	62	0	4
TAP	62	72	4
TAP	62	144	4
TAP	62	192	2
TAP	62	192	5
XTP	62	288	0
XTP	62	288	7
TAP	63	0	4
TAP	63	0	6
TAP	63	48	3
TAP	63	96	4
TAP	63	96	6
TAP	63	144	7
STR	63	192	4
SI_	63	192	4	96	48	1
STR	63	192	6
SI_	63	192	6	96	48	3
TAP	64	0	1
TAP	64	0	3
TAP	64	48	4
TAP	64	96	1
TAP	64	96	3
TAP	64	144	0
STR	64	192	1
SI_	64	192	1	96	48	4
STR	64	192	3
SI_	64	192	3	96	48	6
XHO	65	0	4	96
XHO	65	0	6	96
XHO	65	144	1	96
XHO	65	144	3	96
XST	65	288	2
SXR	65	288	2	96	288	4
XST	65	288	5
SXL	65	288	5	96	288	3
XST	67	0	0
SCR	67	0	0	96	1248	7
THO	67	0	0	1344	C	0	M1
BRK	70	288	1
BRK	70	288	6
HLD	71	0	2	384
TTP	71	96	4	E	0	M1
TTP	71	192	0	C	0	M1
TTP	71	288	0	E	0	M1
HLD	72	0	5	384
TTP	72	96	4	E	0	M1
TTP	72	192	0	C	0	M1
TTP	72	288	0	E	0	M1
HLD	73	0	2	192
TTP	73	96	0	C	0	M1
HLD	73	192	5	192
TTP	73	288	0	C	0	M1
TAP	74	0	2
TAP	74	48	2
TAP	74	96	5
TAP	74	144	5
TAP	74	192	0
TAP	74	216	7
TAP	74	240	0
TAP	74	264	7
TAP	74	288	0
TAP	74	312	7
TAP	74	336	0
XHO	75	0	1	192
XHO	75	0	6	192
XTP	75	288	2
XTP	75	288	3
XST	75	336	1
SI_	75	336	1	96	48	4
XTP	75	336	4
XTP	76	48	1
XST	76	48	6
SI_	76	48	6	96	48	3
XTP	76	144	2
XTP	76	144	6
TAP	76	240	0
TAP	76	240	7
BRK	76	288	1
BRK	76	288	6
XST	77	0	2
SCL	77	0	2	96	96	7
XTP	77	0	3
STR	77	96	7
SCL	77	96	7	96	96	4
STR	77	192	4
SCL	77	192	4	96	96	1
TAP	77	288	6
HLD	77	336	6	96
TAP	78	48	5
TAP	78	96	4
HLD	78	144	3	96
TAP	78	240	4
TAP	78	288	5
TAP	78	336	6
TAP	79	0	3
TAP	79	0	7
XST	79	96	0
SI_	79	96	0	96	48	5
XTP	79	96	5
STR	79	192	6
SI_	79	192	6	96	48	3
TAP	79	288	2
STR	79	336	2
SXR	79	336	2	96	192	7
TAP	80	48	4
TAP	80	144	5
TAP	80	240	6
XTP	80	336	4
XTP	80	336	5
BST	81	0	6
SI_	81	0	6	96	48	3
XTP	81	96	2
BST	81	144	1
SI_	81	144	1	96	48	5
XTP	81	240	5
BST	81	288	6
SSL	81	288	6	96	192	2
BRK	82	288	1
BRK	82	288	6
TAP	83	0	4
TAP	83	48	3
TAP	83	96	2
TAP	83	96	6
TAP	83	144	5
TAP	83	192	3
TAP	83	240	4
TAP	83	288	1
TAP	83	288	5
TAP	83	336	2
TAP	84	0	4
TAP	84	48	3
TAP	84	96	2
TAP	84	96	6
TAP	84	144	5
TAP	84	192	3
TAP	84	240	4
TAP	84	288	1
TAP	84	288	5
TAP	84	336	2
TAP	85	0	5
TAP	85	48	5
TAP	85	96	1
TAP	85	144	1
TAP	85	192	7
STR	85	240	7
SCR	85	240	7	96	144	5
HLD	85	336	1	192
TAP	86	144	0
BRK	86	192	0
XTP	86	288	2
XTP	86	288	6
STR	87	0	3
SF_	87	0	3	96	48	7
TAP	87	0	4
XTP	87	96	3
TAP	87	192	0
TAP	87	240	7
TAP	87	288	2
TAP	87	288	6
TAP	87	336	1
TAP	88	0	7
TAP	88	48	0
TAP	88	96	1
TAP	88	96	5
TAP	88	144	6
TAP	88	192	0
TAP	88	240	7
TAP	88	288	2
TAP	88	288	6
TAP	88	336	1
XHO	89	0	0	96
XHO	89	0	4	96
XHO	89	144	3	96
XHO	89	144	5	96
XST	89	288	2
SXR	89	288	2	96	240	3
XST	89	288	4
SXL	89	288	4	96	240	3
THO	91	0	0	768	C	0	M1
TTP	91	0	1	B	0	M1
TTP	91	0	2	B	0	M1
TTP	91	0	5	B	0	M1
TTP	91	0	6	B	0	M1

T_REC_TAP	317
T_REC_BRK	16
T_REC_XTP	31
T_REC_HLD	31
T_REC_XHO	34
T_REC_STR	43
T_REC_BST	6
T_REC_XST	17
T_REC_TTP	32
T_REC_THO	2
T_REC_SLD	68
T_REC_ALL	597
T_NUM_TAP	440
T_NUM_BRK	22
T_NUM_HLD	67
T_NUM_SLD	68
T_NUM_ALL	597
T_JUDGE_TAP	462
T_JUDGE_HLD	232
T_JUDGE_SLD	68
T_JUDGE_ALL	762
TTM_EACHPAIRS	107
TTM_SCR_TAP	220000
TTM_SCR_BRK	57200
TTM_SCR_HLD	67000
TTM_SCR_SLD	102000
TTM_SCR_ALL	446200
TTM_SCR_S	430700
TTM_SCR_SS	444000
TTM_RAT_ACV	10049

