VERSION	0.00.00	1.03.00
FES_MODE	0
BPM_DEF	190.000	190.000	190.000	190.000
MET_DEF	4	4
RESOLUTION	384
CLK_DEF	384
COMPATIBLE_CODE	MA2

BPM	0	0	190.000
MET	0	0	4	4
CLK	0	0
CLK	0	96
CLK	0	192
CLK	0	288

BRK	1	288	1
BRK	1	288	6
HLD	2	0	2	144
HLD	2	144	3	144
STR	2	288	4
SXL	2	288	4	96	240	2
HLD	4	0	5	144
HLD	4	144	4	144
STR	4	288	3
SXR	4	288	3	96	240	5
HLD	6	0	1	144
HLD	6	144	3	144
STR	6	288	4
SXL	6	288	4	96	240	2
HLD	8	0	6	144
HLD	8	144	4	144
STR	8	288	3
SUR	8	288	3	96	192	4
XTP	9	288	1
XTP	9	288	6
TAP	10	0	2
TAP	10	96	1
TAP	10	96	4
TAP	10	192	5
TAP	10	288	3
TAP	10	288	6
TAP	11	0	2
TAP	11	96	1
TAP	11	96	4
TAP	11	192	5
TAP	11	288	3
TAP	11	288	6
TAP	12	0	7
TAP	12	96	0
TAP	12	96	6
TAP	12	192	1
TAP	12	288	2
TAP	12	288	7
TAP	13	0	3
TAP	13	0	6
TAP	13	96	1
TAP	13	96	4
BRK	13	192	2
BRK	13	192	5
TAP	14	0	1
TAP	14	96	3
TAP	14	192	2
TAP	14	192	4
TAP	14	288	3
TAP	14	288	5
TAP	15	0	6
TAP	15	96	4
TAP	15	192	3
TAP	15	192	5
TAP	15	288	2
TAP	15	288	4
HLD	16	0	1	144
HLD	16	144	0	144
STR	16	288	7
SUL	16	288	7	96	192	3
TTP	18	0	3	E	0	M1
TTP	18	192	6	B	0	M1
TTP	18	192	7	B	0	M1
TTP	19	0	5	E	0	M1
TTP	19	192	0	B	0	M1
TTP	19	192	1	B	0	M1
TTP	20	0	3	E	0	M1
TTP	20	0	5	E	0	M1
TTP	20	192	2	B	0	M1
TTP	20	192	5	B	0	M1
TTP	21	0	1	B	0	M1
TTP	21	0	6	B	0	M1
TTP	21	192	1	E	0	M1
TTP	21	192	7	E	0	M1
HLD	22	0	0	192
TTP	22	192	6	B	0	M1
HLD	23	0	7	192
TTP	23	192	1	B	0	M1
TTP	24	0	3	B	0	M1
TTP	24	0	5	E	0	M1
TTP	24	192	1	E	0	M1
TTP	24	192	7	B	0	M1
TTP	25	0	0	B	0	M1
TTP	25	0	7	E	0	M1
TTP	25	192	3	E	0	M1
TTP	25	192	4	B	0	M1
XTP	26	0	0
XTP	26	96	7
BRK	26	192	1
BRK	26	192	6
HLD	27	0	1	288
TAP	27	96	3
TAP	27	192	3
TAP	27	288	4
HLD	28	0	5	192
STR	28	96	4
SXR	28	96	4	96	120	2
HLD	29	0	6	288
TAP	29	96	0
TAP	29	192	0
TAP	29	288	1
HLD	30	0	2	192
STR	30	96	3
SXL	30	96	3	96	120	5
TAP	31	0	2
TAP	31	96	2
TAP	31	192	1
TAP	31	192	3
TAP	31	288	4
TAP	32	0	5
TAP	32	96	5
TAP	32	192	4
TAP	32	192	6
TAP	32	288	3
TAP	33	0	3
TAP	33	0	4
TAP	33	96	2
TAP	33	96	5
TAP	33	192	0
TAP	33	192	7
TAP	33	288	1
TAP	33	288	6
TTP	34	0	0	C	1	M1
TAP	35	0	0
TAP	35	0	7
TAP	35	96	4
TAP	35	96	5
TAP	35	192	0
TAP	35	192	7
TAP	35	288	2
TAP	35	288	3
TAP	36	0	0
TAP	36	0	7
TAP	36	96	4
TAP	36	96	6
TAP	36	192	0
TAP	36	192	7
TAP	36	288	1
TAP	36	288	3
TAP	37	0	6
TAP	37	48	6
TAP	37	96	7
TAP	37	192	1
TAP	37	240	1
TAP	37	288	0
TAP	38	0	0
TAP	38	0	7
TAP	38	96	3
TAP	38	96	4
BRK	38	192	2
BRK	38	192	6
TAP	39	0	3
HLD	39	0	5	96
STR	39	96	7
SI_	39	96	7	96	96	3
HLD	40	0	2	96
TAP	40	0	4
STR	40	96	0
SI_	40	96	0	96	96	4
TAP	41	0	1
STR	41	96	2
SUL	41	96	2	96	96	5
TAP	41	96	4
TAP	42	0	4
TAP	42	0	5
TAP	42	96	0
TAP	42	96	1
BRK	42	192	2
BRK	42	192	6
TAP	43	0	0
TAP	43	0	7
TAP	43	96	2
TAP	43	96	3
TAP	43	192	0
TAP	43	192	7
TAP	43	288	4
TAP	43	288	5
TAP	44	0	0
TAP	44	0	7
TAP	44	96	1
TAP	44	96	3
TAP	44	192	0
TAP	44	192	7
TAP	44	288	4
TAP	44	288	6
TAP	45	0	2
TAP	45	48	2
TAP	45	96	3
TAP	45	192	5
TAP	45	240	5
TAP	45	288	4
TAP	46	0	0
TAP	46	0	7
TAP	46	96	3
TAP	46	96	4
BRK	46	192	1
BRK	46	192	5
HLD	47	0	2	384
TAP	47	96	3
TAP	47	192	1
TAP	47	288	0
HLD	48	0	7	288
TAP	48	96	0
TAP	48	192	6
TAP	48	288	5
HLD	49	0	4	144
HLD	49	144	3	144
STR	49	288	2
SCL	49	288	2	96	192	5
XTP	50	288	1
XTP	50	288	6
TAP	51	0	1
TAP	51	48	1
TAP	51	96	0
TAP	51	192	6
TAP	51	240	6
TAP	51	288	7
TAP	52	0	2
TAP	52	48	2
TAP	52	96	7
TAP	52	144	7
TAP	52	192	0
BRK	52	288	1
BRK	52	288	6
TAP	53	0	2
TAP	53	48	2
TAP	53	96	3
TAP	53	192	5
TAP	53	240	5
TAP	53	288	4
TAP	54	0	7
TAP	54	48	7
TAP	54	96	3
BRK	54	192	1
BRK	54	192	5
HLD	55	0	1	96
HLD	55	96	2	96
HLD	55	192	3	96
TAP	55	288	7
HLD	56	0	6	96
HLD	56	96	5	96
HLD	56	192	4	96
TAP	56	288	0
HLD	57	0	1	96
HLD	57	96	3	96
HLD	57	192	4	96
HLD	57	288	6	96
HLD	58	0	0	192
HLD	58	96	7	96
BRK	58	288	2
BRK	58	288	5
HLD	59	0	3	192
TTP	59	192	6	B	0	M1
HLD	60	0	4	192
TTP	60	192	1	B	0	M1
TTP	61	0	3	B	0	M1
TTP	61	0	3	E	0	M1
TTP	61	0	4	B	0	M1
TTP	61	0	5	E	0	M1
TTP	61	192	0	B	0	M1
TTP	61	192	1	E	0	M1
TTP	61	192	7	E	0	M1
TTP	61	192	7	B	0	M1
THO	62	0	0	192	C	1	M1
TAP	63	0	6
TAP	63	96	0
TAP	63	192	0
TAP	63	192	6
TAP	63	288	1
TAP	63	288	7
TAP	64	0	2
TAP	64	96	0
TAP	64	192	1
TAP	64	192	7
TAP	64	288	0
TAP	64	288	6
HLD	65	0	5	144
HLD	65	144	4	144
STR	65	288	3
SCL	65	288	3	96	240	4
HLD	67	0	3	768
HLD	69	0	4	768
HLD	71	0	2	384
TAP	71	96	3
TAP	71	192	3
TAP	71	288	4
HLD	72	0	5	384
TAP	72	96	4
TAP	72	192	4
TAP	72	288	3
TAP	73	0	2
TAP	73	96	2
TAP	73	96	4
TAP	73	192	3
TAP	73	192	5
STR	73	288	3
SCL	73	288	3	96	144	0
STR	73	288	4
SCR	73	288	4	96	144	7
BRK	74	288	1
BRK	74	288	6
HLD	75	0	3	192
HLD	75	0	4	192
XTP	75	336	4
XTP	75	336	5
XTP	76	48	2
XTP	76	48	3
XTP	76	144	1
XTP	76	144	6
XTP	76	240	0
BRK	76	288	0
TAP	77	0	6
TAP	77	0	7
TAP	77	96	3
TAP	77	96	4
TAP	77	192	0
TAP	77	192	1
TAP	77	288	3
TAP	77	288	4
TAP	78	0	0
TAP	78	0	6
TAP	78	96	3
TAP	78	96	4
BRK	78	192	0
BRK	78	192	7
HLD	79	0	6	384
TAP	79	96	7
TAP	79	192	5
TAP	79	288	4
HLD	80	0	3	288
TAP	80	96	4
TAP	80	192	2
TAP	80	288	1
HLD	81	0	0	144
HLD	81	144	7	144
STR	81	288	6
SCL	81	288	6	96	192	1
XTP	82	288	0
XTP	82	288	7
TAP	83	0	6
TAP	83	96	0
TAP	83	96	5
TAP	83	192	1
TAP	83	288	2
TAP	83	288	7
TAP	84	0	6
TAP	84	96	0
TAP	84	96	5
TAP	84	192	1
TAP	84	288	2
TAP	84	288	7
TAP	85	0	2
TAP	85	96	1
TAP	85	96	4
TAP	85	192	5
TAP	85	288	3
TAP	85	288	6
TAP	86	0	0
TAP	86	0	7
TAP	86	96	2
TAP	86	96	3
BRK	86	192	1
BRK	86	192	5
TAP	87	0	3
TAP	87	0	4
BRK	87	96	1
BRK	87	96	6
TAP	87	192	7
TAP	87	288	2
TAP	87	288	3
TAP	88	0	4
TAP	88	96	0
TAP	88	96	1
TAP	88	192	3
TAP	88	288	6
TAP	88	288	7
HLD	89	0	5	144
HLD	89	144	4	144
STR	89	288	3
SCL	89	288	3	96	240	4
THO	91	0	0	768	C	0	M1

T_REC_TAP	220
T_REC_BRK	27
T_REC_XTP	15
T_REC_HLD	50
T_REC_XHO	0
T_REC_STR	16
T_REC_BST	0
T_REC_XST	0
T_REC_TTP	35
T_REC_THO	2
T_REC_SLD	16
T_REC_ALL	381
T_NUM_TAP	286
T_NUM_BRK	27
T_NUM_HLD	52
T_NUM_SLD	16
T_NUM_ALL	381
T_JUDGE_TAP	313
T_JUDGE_HLD	224
T_JUDGE_SLD	16
T_JUDGE_ALL	553
TTM_EACHPAIRS	88
TTM_SCR_TAP	143000
TTM_SCR_BRK	70200
TTM_SCR_HLD	52000
TTM_SCR_SLD	24000
TTM_SCR_ALL	289200
TTM_SCR_S	277950
TTM_SCR_SS	286500
TTM_RAT_ACV	10094

