VERSION	0.00.00	1.03.00
FES_MODE	0
BPM_DEF	190.000	190.000	190.000	190.000
MET_DEF	4	4
RESOLUTION	384
CLK_DEF	384
COMPATIBLE_CODE	MA2

BPM	0	0	190.000
MET	0	0	4	4
CLK	0	0
CLK	0	96
CLK	0	192
CLK	0	288

STR	2	0	0
SXR	2	0	0	96	480	5
STR	4	0	7
SXL	4	0	7	96	480	2
STR	6	0	1
SXL	6	0	1	96	480	4
STR	8	0	6
SXR	8	0	6	96	480	3
TAP	10	0	2
TAP	10	96	2
TAP	10	192	2
TAP	10	192	3
TAP	11	0	5
TAP	11	96	5
TAP	11	192	4
TAP	11	192	5
TAP	12	0	2
TAP	12	96	3
TAP	12	192	4
TAP	12	288	5
TAP	13	0	3
TAP	13	0	4
TAP	13	96	3
TAP	13	96	4
XTP	13	192	2
XTP	13	192	5
TAP	14	0	6
TAP	14	96	6
TAP	14	192	6
TAP	14	192	7
TAP	15	0	1
TAP	15	96	1
TAP	15	192	0
TAP	15	192	1
STR	16	0	0
SI_	16	0	0	96	192	3
STR	16	0	7
SI_	16	0	7	96	192	4
TTP	18	0	2	B	0	L1
TTP	18	192	0	C	0	L1
TTP	19	0	6	B	0	L1
TTP	20	0	5	B	0	L1
TTP	20	192	0	C	0	L1
TTP	21	0	1	B	0	L1
TTP	22	0	6	B	0	L1
TTP	22	192	0	C	0	L1
TTP	23	0	2	B	0	L1
TTP	24	0	3	B	0	L1
TTP	24	0	4	B	0	L1
TTP	24	192	2	B	0	L1
TTP	24	192	5	B	0	L1
TTP	25	0	1	B	0	L1
TTP	25	0	6	B	0	L1
TTP	26	0	0	C	1	L1
TAP	27	0	2
TAP	27	96	3
STR	27	192	4
SCR	27	192	4	96	216	7
TAP	29	0	0
TAP	29	96	1
STR	29	192	2
SCR	29	192	2	96	216	5
TAP	31	0	5
TAP	31	96	5
TAP	31	192	4
TAP	31	288	4
TAP	32	0	3
TAP	32	96	3
TAP	32	192	2
TAP	32	288	2
TAP	33	0	3
TAP	33	0	4
TAP	33	96	3
TAP	33	96	4
TAP	33	192	2
TAP	33	192	5
TAP	33	288	2
TAP	33	288	5
BRK	34	0	1
BRK	34	0	6
TAP	35	0	1
TAP	35	96	0
TAP	35	96	1
TAP	35	192	6
TAP	35	288	6
TAP	35	288	7
TAP	36	0	1
TAP	36	96	0
TAP	36	96	1
TAP	36	192	2
TAP	36	192	7
TAP	37	0	6
TAP	37	96	5
TAP	37	192	4
TAP	37	288	3
TAP	38	0	2
TAP	38	96	2
TAP	38	192	1
TAP	38	192	3
TAP	39	0	5
TAP	39	96	4
TAP	39	192	3
TAP	39	192	6
TAP	40	0	2
TAP	40	96	3
TAP	40	192	1
TAP	40	192	4
TAP	41	0	3
TAP	41	0	4
TAP	41	96	2
TAP	41	96	5
TAP	41	192	1
TAP	41	192	6
STR	41	288	0
SI_	41	288	0	96	192	3
STR	41	288	7
SI_	41	288	7	96	192	4
TAP	43	0	5
TAP	43	96	4
TAP	43	96	5
TAP	43	192	2
TAP	43	288	2
TAP	43	288	3
TAP	44	0	5
TAP	44	96	4
TAP	44	96	5
TAP	44	192	3
TAP	44	192	6
TAP	45	0	2
TAP	45	96	1
TAP	45	192	0
TAP	45	288	7
TAP	46	0	6
TAP	46	96	6
TAP	46	192	5
TAP	46	192	7
TAP	47	0	1
TAP	47	96	0
TAP	47	192	2
TAP	47	192	7
TAP	48	0	6
TAP	48	96	7
TAP	48	192	0
TAP	48	192	5
TAP	49	0	0
TAP	49	0	7
TAP	49	96	0
TAP	49	96	7
TAP	49	192	1
TAP	49	192	6
HLD	49	288	1	288
HLD	49	288	6	288
STR	51	0	0
SI_	51	0	0	96	192	3
STR	52	0	7
SI_	52	0	7	96	192	4
STR	53	0	1
SI_	53	0	1	96	192	6
STR	54	0	5
SI_	54	0	5	96	192	2
TAP	55	0	1
TAP	55	96	1
TAP	55	192	0
TAP	55	288	0
TAP	56	0	7
TAP	56	96	7
TAP	56	192	6
TAP	56	288	6
TAP	57	0	5
TAP	57	96	5
TAP	57	192	4
TAP	57	288	4
TAP	58	0	3
TAP	58	0	4
TAP	58	96	3
TAP	58	96	4
BRK	58	192	2
BRK	58	192	5
TTP	59	0	3	B	0	L1
TTP	59	192	4	B	0	L1
TTP	60	0	2	B	0	L1
TTP	60	0	5	B	0	L1
TTP	61	0	6	B	0	L1
TTP	61	192	1	B	0	L1
TTP	62	0	0	C	1	L1
TAP	63	0	6
TAP	63	96	6
TAP	63	192	6
TAP	63	192	7
TAP	64	0	1
TAP	64	96	1
TAP	64	192	0
TAP	64	192	1
STR	65	0	0
SXL	65	0	0	96	480	3
STR	65	0	7
SXR	65	0	7	96	480	4
HLD	67	0	5	384
HLD	68	0	4	384
HLD	69	0	3	384
HLD	70	0	2	384
TAP	71	0	3
TAP	71	96	3
TAP	71	192	3
TAP	72	0	4
TAP	72	96	4
TAP	72	192	4
TAP	73	0	3
TAP	73	0	4
TAP	73	96	3
TAP	73	96	4
TAP	73	192	2
TAP	73	192	5
TAP	73	288	2
TAP	73	288	5
TAP	74	0	1
TAP	74	0	6
TAP	74	96	1
TAP	74	96	6
BRK	74	192	0
BRK	74	192	7
XTP	75	0	0
XTP	75	0	7
STR	75	336	6
SI_	75	336	6	96	192	3
STR	75	336	7
SI_	75	336	7	96	192	2
TAP	77	0	1
TAP	77	96	2
TAP	77	192	3
TAP	77	288	4
TAP	78	0	5
TAP	78	96	5
TAP	78	192	4
TAP	78	192	6
TAP	79	0	2
TAP	79	96	3
TAP	79	192	1
TAP	79	192	4
TAP	80	0	5
TAP	80	96	4
TAP	80	192	3
TAP	80	192	6
TAP	81	0	3
TAP	81	0	4
TAP	81	96	2
TAP	81	96	5
TAP	81	192	1
TAP	81	192	6
STR	81	288	0
SCR	81	288	0	96	192	3
STR	81	288	7
SCL	81	288	7	96	192	4
TAP	83	0	5
TAP	83	96	4
TAP	83	192	4
TAP	83	192	5
TAP	84	0	2
TAP	84	96	3
TAP	84	192	2
TAP	84	192	3
TAP	85	0	5
TAP	85	96	4
TAP	85	192	3
TAP	85	288	2
TAP	86	0	3
TAP	86	0	4
TAP	86	96	3
TAP	86	96	4
XTP	86	192	2
XTP	86	192	5
TAP	87	0	1
TAP	87	96	0
TAP	87	192	0
TAP	87	192	1
TAP	88	0	6
TAP	88	96	7
TAP	88	192	6
TAP	88	192	7
STR	89	0	0
SI_	89	0	0	96	192	3
STR	89	0	7
SI_	89	0	7	96	192	4
THO	91	0	0	864	C	0	L1

T_REC_TAP	198
T_REC_BRK	6
T_REC_XTP	6
T_REC_HLD	6
T_REC_XHO	0
T_REC_STR	22
T_REC_BST	0
T_REC_XST	0
T_REC_TTP	23
T_REC_THO	1
T_REC_SLD	22
T_REC_ALL	284
T_NUM_TAP	249
T_NUM_BRK	6
T_NUM_HLD	7
T_NUM_SLD	22
T_NUM_ALL	284
T_JUDGE_TAP	255
T_JUDGE_HLD	62
T_JUDGE_SLD	22
T_JUDGE_ALL	339
TTM_EACHPAIRS	65
TTM_SCR_TAP	124500
TTM_SCR_BRK	15600
TTM_SCR_HLD	7000
TTM_SCR_SLD	33000
TTM_SCR_ALL	180100
TTM_SCR_S	174150
TTM_SCR_SS	179500
TTM_RAT_ACV	10033

