VERSION	0.00.00	1.03.00
FES_MODE	0
BPM_DEF	170.000	170.000	170.000	170.000
MET_DEF	4	4
RESOLUTION	384
CLK_DEF	384
COMPATIBLE_CODE	MA2

BPM	0	0	170.000
MET	0	0	4	4

TTP	1	0	2	B	0	M1
TTP	1	0	3	B	0	M1
TTP	1	0	3	E	0	M1
TTP	1	96	4	B	0	M1
TTP	1	96	5	E	0	M1
TTP	1	96	5	B	0	M1
TTP	1	192	0	E	0	M1
TTP	1	192	0	B	0	M1
TTP	1	192	7	B	0	M1
TTP	1	288	0	C	1	M1
TTP	1	288	2	E	0	M1
TTP	1	288	6	E	0	M1
STR	2	0	3
SXR	2	0	3	96	1248	0
HLD	2	0	4	576
TAP	4	0	4
TAP	4	192	5
TAP	5	0	6
TAP	5	192	7
HLD	6	0	0	576
STR	6	0	7
SXR	6	0	7	96	1248	4
TAP	8	0	0
TAP	8	192	1
TAP	9	0	2
TAP	9	192	3
STR	10	0	4
SXR	10	0	4	96	1248	1
HLD	10	0	5	576
TAP	12	0	5
TAP	12	192	6
TAP	13	0	7
TAP	13	192	0
STR	14	0	6
SXR	14	0	6	96	960	3
HLD	14	0	7	576
TAP	16	0	7
TAP	16	96	0
TAP	16	192	1
TAP	16	288	2
TAP	17	0	1
TAP	17	0	4
TAP	17	96	2
TAP	17	96	6
STR	17	192	0
SI_	17	192	0	96	48	4
STR	17	192	7
SI_	17	192	7	96	48	3
BRK	17	288	0
BRK	17	288	7
HLD	18	0	2	72
TAP	18	72	3
TAP	18	144	1
TAP	18	144	4
HLD	18	192	5	72
TAP	18	264	4
TAP	18	336	3
TAP	18	336	6
HLD	19	0	2	72
TAP	19	72	3
TAP	19	144	1
TAP	19	144	4
STR	19	192	5
SLR	19	192	5	96	72	3
TAP	19	240	5
XTP	19	288	0
HLD	20	0	1	72
TAP	20	72	0
TAP	20	144	2
TAP	20	144	7
HLD	20	192	6	72
TAP	20	264	7
TAP	20	336	0
TAP	20	336	5
HLD	21	0	1	72
TAP	21	72	0
TAP	21	144	2
TAP	21	144	7
STR	21	192	3
SI_	21	192	3	96	48	7
TAP	21	240	3
XTP	21	288	6
HLD	22	0	5	72
TAP	22	72	4
TAP	22	144	0
TAP	22	144	6
HLD	22	192	2	72
TAP	22	264	3
TAP	22	336	1
TAP	22	336	7
HLD	23	0	5	72
TAP	23	72	4
TAP	23	144	0
TAP	23	144	6
STR	23	192	2
SLL	23	192	2	96	72	4
TAP	23	240	2
XTP	23	288	7
HLD	24	0	6	72
TAP	24	72	7
TAP	24	144	3
TAP	24	144	5
HLD	24	192	1	72
TAP	24	264	0
TAP	24	336	2
TAP	24	336	4
HLD	25	0	6	72
TAP	25	72	7
TAP	25	144	3
TAP	25	144	5
STR	25	192	4
SF_	25	192	4	96	48	0
TAP	25	240	4
HLD	26	0	2	72
TAP	26	72	3
TAP	26	120	1
TAP	26	144	1
HLD	26	192	5	72
TAP	26	264	4
TAP	26	312	6
TAP	26	336	6
HLD	27	0	2	72
TAP	27	72	3
TAP	27	120	1
TAP	27	144	1
STR	27	192	5
SLR	27	192	5	96	72	3
TAP	27	240	5
TTP	27	288	2	B	0	M1
TTP	27	288	3	B	0	M1
TTP	27	288	3	E	0	M1
HLD	28	0	1	72
TAP	28	72	0
TAP	28	120	2
TAP	28	144	2
HLD	28	192	6	72
TAP	28	264	7
TAP	28	312	5
TAP	28	336	5
HLD	29	0	1	72
TAP	29	72	0
TAP	29	120	2
TAP	29	144	2
TTP	29	192	6	B	0	M1
TTP	29	192	7	E	0	M1
TTP	29	192	7	B	0	M1
TTP	29	240	0	B	0	M1
TTP	29	240	1	B	0	M1
TTP	29	240	1	E	0	M1
TTP	29	288	3	B	0	M1
TTP	29	288	4	E	0	M1
TTP	29	288	4	B	0	M1
HLD	30	0	5	72
TAP	30	72	4
TAP	30	120	7
TAP	30	144	7
HLD	30	192	2	72
TAP	30	264	3
TAP	30	312	0
TAP	30	336	0
HLD	31	0	5	72
TAP	31	72	4
TAP	31	120	7
TAP	31	144	7
STR	31	192	2
SLL	31	192	2	96	72	4
TAP	31	240	2
TTP	31	288	4	B	0	M1
TTP	31	288	5	E	0	M1
TTP	31	288	5	B	0	M1
HLD	32	0	6	72
TAP	32	72	7
TAP	32	120	4
TAP	32	144	4
HLD	32	192	1	72
TAP	32	264	0
TAP	32	312	3
TAP	32	336	3
THO	33	0	0	288	C	1	M1
XST	33	192	0
SI_	33	192	0	96	48	4
BRK	33	288	0
TAP	34	0	7
TAP	34	48	7
TAP	34	96	1
TAP	34	144	1
HLD	34	192	5	96
TAP	34	288	3
TAP	34	336	4
HLD	35	0	1	96
HLD	35	96	2	96
TAP	35	192	3
TAP	35	240	4
TAP	35	288	2
TAP	35	336	6
TAP	36	0	0
TAP	36	48	0
TAP	36	96	5
TAP	36	144	5
HLD	36	192	2	96
HLD	36	288	7	96
TAP	37	0	0
TAP	37	12	1
TAP	37	24	2
TAP	37	36	3
TAP	37	48	4
TAP	37	60	5
TAP	37	72	6
TAP	37	84	7
TTP	37	96	1	E	0	M1
TTP	37	108	2	E	0	M1
TTP	37	120	3	E	0	M1
TTP	37	132	4	E	0	M1
TTP	37	144	5	E	0	M1
TTP	37	156	6	E	0	M1
TTP	37	168	7	E	0	M1
TTP	37	180	0	E	0	M1
TTP	37	192	0	C	1	M1
TTP	37	192	1	B	0	M1
TAP	38	0	6
TAP	38	48	6
TAP	38	96	0
TAP	38	144	0
TAP	38	192	1
HLD	38	192	6	96
TAP	38	288	4
TAP	38	336	5
HLD	39	0	2	96
HLD	39	96	0	96
TAP	39	192	7
TAP	39	240	6
TAP	39	288	5
TAP	39	336	4
TAP	40	0	3
TAP	40	48	2
TAP	40	48	4
TAP	40	96	1
TAP	40	96	5
TAP	40	144	0
TAP	40	144	6
STR	40	192	7
SCL	40	192	7	96	48	4
TAP	40	288	1
TTP	41	0	0	C	0	M1
TTP	41	0	2	B	0	M1
TTP	41	0	3	B	0	M1
TTP	41	0	3	E	0	M1
TTP	41	96	0	C	0	M1
TTP	41	96	4	B	0	M1
TTP	41	96	5	B	0	M1
TTP	41	96	5	E	0	M1
TTP	41	192	0	C	0	M1
TTP	41	192	0	B	0	M1
TTP	41	192	1	B	0	M1
TTP	41	192	1	E	0	M1
TTP	41	288	0	C	0	M1
TTP	41	288	6	B	0	M1
TTP	41	288	7	E	0	M1
TTP	41	288	7	B	0	M1
TAP	42	0	0
TAP	42	0	4
TAP	42	48	1
TAP	42	48	5
TAP	42	96	2
TAP	42	96	6
TAP	42	144	3
TAP	42	144	7
STR	42	192	0
SCL	42	192	0	96	48	5
TAP	42	192	4
TAP	42	288	2
TAP	42	336	1
STR	43	0	0
SCR	43	0	0	96	48	3
HLD	43	0	4	288
STR	43	192	5
SCR	43	192	5	96	48	0
TAP	44	0	1
TAP	44	0	5
TAP	44	48	1
TAP	44	48	5
TAP	44	96	2
TAP	44	96	6
TAP	44	144	2
TAP	44	144	6
TAP	44	192	3
HLD	44	192	7	96
STR	44	288	3
SCR	44	288	3	96	96	7
STR	45	0	7
SUR	45	0	7	96	96	3
STR	45	96	3
SUR	45	96	3	96	96	7
STR	45	192	7
SCR	45	192	7	96	96	3
TAP	45	288	3
TAP	46	0	6
TAP	46	48	5
TAP	46	96	2
TAP	46	144	1
STR	46	192	0
SCL	46	192	0	96	48	5
TAP	46	192	4
TTP	46	288	0	C	0	M1
TAP	47	0	0
STR	47	0	4
SCL	47	0	4	96	48	1
TTP	47	96	0	C	0	M1
STR	47	192	0
SCL	47	192	0	96	48	5
TAP	47	192	4
TTP	47	288	0	C	0	M1
TAP	48	0	3
TAP	48	48	3
TAP	48	96	2
TAP	48	96	6
TAP	48	144	2
TAP	48	144	6
STR	48	192	1
SI_	48	192	1	96	48	7
STR	48	192	5
SI_	48	192	5	96	48	3
TAP	48	288	1
TAP	48	288	5
TTP	49	0	5	B	0	M1
TTP	49	0	6	B	0	M1
TTP	49	0	6	E	0	M1
TTP	49	96	1	B	0	M1
TTP	49	96	2	B	0	M1
TTP	49	96	2	E	0	M1
STR	49	192	0
SV_	49	192	0	96	48	3
STR	49	192	4
SV_	49	192	4	96	48	7
BRK	49	288	0
BRK	49	288	4
TTP	49	312	0	C	1	M1
STR	50	0	6
SUL	50	0	6	96	288	5
TAP	50	288	3
STR	51	0	3
SUR	51	0	3	96	288	4
TAP	51	288	7
STR	52	0	7
SUR	52	0	7	96	288	0
TAP	52	288	1
STR	53	0	1
SUR	53	0	1	96	288	2
TAP	53	288	4
STR	54	0	4
SUR	54	0	4	96	288	7
TAP	54	288	0
STR	55	0	0
SUR	55	0	0	96	288	3
TAP	55	288	5
STR	56	0	5
SUL	56	0	5	96	288	2
TAP	56	288	1
HLD	57	0	1	96
TAP	57	96	0
TAP	57	192	2
TAP	57	192	7
STR	57	288	0
SI_	57	288	0	96	48	4
TTP	57	336	7	B	0	M1
TAP	58	0	0
STR	58	96	6
SI_	58	96	6	96	48	3
TTP	58	144	2	B	0	M1
TAP	58	192	6
STR	58	288	1
SI_	58	288	1	96	48	4
TTP	58	336	6	B	0	M1
TAP	59	0	1
STR	59	96	7
SI_	59	96	7	96	48	3
TTP	59	144	0	B	0	M1
TAP	59	192	7
STR	59	288	1
SI_	59	288	1	96	48	6
TTP	59	336	4	B	0	M1
TAP	60	0	1
STR	60	96	5
SI_	60	96	5	96	48	2
TTP	60	144	1	B	0	M1
TAP	60	192	5
STR	60	288	3
SI_	60	288	3	96	48	0
TTP	60	336	5	B	0	M1
TAP	61	0	3
STR	61	96	7
SI_	61	96	7	96	48	4
TTP	61	144	0	C	0	M1
TAP	61	192	7
STR	61	288	0
SCR	61	288	0	96	48	3
TTP	61	336	5	B	0	M1
TTP	61	336	6	B	0	M1
STR	62	0	0
SCL	62	0	0	96	48	5
STR	62	96	0
SI_	62	96	0	96	48	4
TAP	62	192	0
STR	62	288	7
SCL	62	288	7	96	48	4
TTP	62	336	1	B	0	M1
TTP	62	336	2	B	0	M1
STR	63	0	7
SCR	63	0	7	96	48	2
STR	63	96	7
SI_	63	96	7	96	48	3
TAP	63	192	7
STR	63	288	0
SCR	63	288	0	96	48	3
TTP	63	336	0	C	0	M1
TTP	63	336	4	B	0	M1
TTP	63	336	5	B	0	M1
STR	64	0	0
SCL	64	0	0	96	48	5
STR	64	96	0
SI_	64	96	0	96	48	3
STR	64	192	0
SI_	64	192	0	96	48	5
STR	64	288	0
SF_	64	288	0	96	48	4
BRK	65	0	0
TTP	65	192	0	C	1	M1
TTP	65	192	1	B	0	M1
TTP	65	192	2	B	0	M1
TTP	65	192	5	B	0	M1
TTP	65	192	6	B	0	M1
HLD	65	288	0	96
TAP	65	336	7
HLD	66	0	6	96
TAP	66	48	5
STR	66	96	4
SI_	66	96	4	96	48	0
TAP	66	144	3
TAP	66	192	2
TAP	66	192	4
HLD	66	288	7	96
TAP	66	336	0
HLD	67	0	1	96
TAP	67	48	2
STR	67	96	3
SI_	67	96	3	96	48	7
TAP	67	144	4
TAP	67	192	3
TAP	67	192	5
HLD	67	288	4	96
TAP	67	336	3
HLD	68	0	2	96
TAP	68	48	1
STR	68	96	0
SI_	68	96	0	96	48	4
TAP	68	144	7
TAP	68	192	0
TAP	68	192	6
HLD	68	288	3	96
TAP	68	336	4
HLD	69	0	5	96
TAP	69	48	6
STR	69	96	7
SI_	69	96	7	96	48	3
TAP	69	144	0
TAP	69	192	1
TAP	69	192	7
STR	69	288	2
SI_	69	288	2	96	48	6
TAP	69	336	2
STR	70	0	3
SI_	70	0	3	96	48	5
TAP	70	48	3
STR	70	96	1
SI_	70	96	1	96	48	7
TAP	70	144	1
TAP	70	192	6
STR	70	288	5
SI_	70	288	5	96	48	1
TAP	70	336	5
STR	71	0	4
SI_	71	0	4	96	48	2
TAP	71	48	4
STR	71	96	6
SI_	71	96	6	96	48	0
TAP	71	144	6
TAP	71	192	1
STR	71	288	1
SI_	71	288	1	96	48	5
TAP	71	336	1
STR	72	0	0
SCL	72	0	0	96	48	5
TAP	72	48	0
STR	72	96	2
SCR	72	96	2	96	48	5
TAP	72	144	2
TAP	72	192	7
STR	72	288	6
SI_	72	288	6	96	48	2
TAP	72	336	6
STR	73	0	7
SCR	73	0	7	96	48	2
TAP	73	48	7
STR	73	96	5
SCL	73	96	5	96	48	2
TAP	73	144	5
TAP	73	192	0
STR	73	288	0
SI_	73	288	0	96	48	4
TAP	73	336	5
XST	74	0	0
SI_	74	0	0	96	48	5
TAP	74	48	7
XST	74	96	0
SI_	74	96	0	96	48	3
TAP	74	144	1
XTP	74	192	0
STR	74	288	7
SI_	74	288	7	96	48	3
TAP	74	336	2
XST	75	0	7
SI_	75	0	7	96	48	2
TAP	75	48	0
XST	75	96	7
SI_	75	96	7	96	48	4
TAP	75	144	6
XTP	75	192	7
STR	75	288	3
SI_	75	288	3	96	48	7
TAP	75	336	6
XST	76	0	3
SI_	76	0	3	96	48	6
TAP	76	48	4
XST	76	96	3
SI_	76	96	3	96	48	0
TAP	76	144	2
XTP	76	192	3
STR	76	288	4
SI_	76	288	4	96	24	0
TAP	76	336	1
XST	77	0	4
SI_	77	0	4	96	48	1
TAP	77	48	3
XST	77	96	4
SI_	77	96	4	96	48	7
TAP	77	144	5
XTP	77	192	4
STR	77	288	1
SI_	77	288	1	96	48	3
STR	77	336	0
SI_	77	336	0	96	48	6
XST	78	0	1
SI_	78	0	1	96	48	5
XST	78	48	0
SI_	78	48	0	96	48	4
XST	78	96	1
SCR	78	96	1	96	48	5
XTP	78	144	0
XTP	78	192	1
STR	78	288	6
SI_	78	288	6	96	48	4
STR	78	336	7
SI_	78	336	7	96	48	1
XST	79	0	6
SI_	79	0	6	96	48	2
XST	79	48	7
SI_	79	48	7	96	48	3
XST	79	96	6
SCL	79	96	6	96	48	2
XTP	79	144	7
XTP	79	192	6
STR	79	288	1
SI_	79	288	1	96	48	5
TAP	79	336	1
BST	80	0	0
SI_	80	0	0	96	48	4
TAP	80	48	0
BST	80	96	7
SI_	80	96	7	96	48	3
TAP	80	144	7
BST	80	192	6
SI_	80	192	6	96	48	2
TAP	80	240	6
BST	80	288	0
SF_	80	288	0	96	48	4
TAP	80	336	0
TTP	81	24	0	C	1	M1
BRK	81	192	1
BRK	81	192	5
BST	81	288	3
SI_	81	288	3	96	48	6
BRK	81	288	7
STR	82	0	6
SI_	82	0	6	96	48	3
STR	82	96	3
SI_	82	96	3	96	48	0
STR	82	192	0
SI_	82	192	0	96	48	3
STR	82	288	3
SI_	82	288	3	96	48	6
STR	83	0	6
SI_	83	0	6	96	48	3
STR	83	96	3
SCR	83	96	3	96	96	2
TTP	83	192	0	C	0	M1
XST	83	288	6
SI_	83	288	6	96	48	3
STR	84	0	3
SI_	84	0	3	96	48	6
STR	84	96	6
SI_	84	96	6	96	48	1
STR	84	192	1
SI_	84	192	1	96	48	6
STR	84	288	6
SI_	84	288	6	96	48	3
STR	85	0	3
SI_	85	0	3	96	48	6
STR	85	96	6
SCR	85	96	6	96	96	5
TTP	85	192	0	C	0	M1
XST	85	288	0
SI_	85	288	0	96	48	5
STR	86	0	5
SI_	86	0	5	96	48	0
STR	86	96	0
SI_	86	96	0	96	48	3
STR	86	192	3
SI_	86	192	3	96	48	0
STR	86	288	0
SI_	86	288	0	96	48	5
STR	87	0	5
SI_	87	0	5	96	48	0
STR	87	96	0
SCL	87	96	0	96	96	1
TTP	87	192	0	C	0	M1
XST	87	288	5
SI_	87	288	5	96	48	0
STR	88	0	0
SI_	88	0	0	96	48	5
STR	88	96	5
SI_	88	96	5	96	48	2
STR	88	192	2
SI_	88	192	2	96	48	5
STR	88	288	5
SI_	88	288	5	96	48	0
STR	89	0	0
SI_	89	0	0	96	48	5
STR	89	96	5
SCL	89	96	5	96	96	6
TTP	89	192	0	C	0	M1
XST	89	288	2
SI_	89	288	2	96	48	5
STR	90	0	5
SI_	90	0	5	96	48	0
STR	90	96	0
SI_	90	96	0	96	48	5
STR	90	192	5
SI_	90	192	5	96	48	2
STR	90	288	2
SI_	90	288	2	96	48	7
STR	91	0	7
SI_	91	0	7	96	48	2
STR	91	96	2
SCR	91	96	2	96	96	1
TTP	91	192	0	C	0	M1
XST	91	288	4
SI_	91	288	4	96	48	1
STR	92	0	1
SI_	92	0	1	96	48	6
STR	92	96	6
SI_	92	96	6	96	48	1
STR	92	192	1
SI_	92	192	1	96	48	4
STR	92	288	4
SI_	92	288	4	96	48	7
STR	93	0	7
SI_	93	0	7	96	48	4
STR	93	96	4
SCL	93	96	4	96	96	5
TTP	93	192	0	C	0	M1
XST	93	288	1
SI_	93	288	1	96	48	4
STR	94	0	4
SI_	94	0	4	96	48	7
STR	94	96	7
SI_	94	96	7	96	48	4
STR	94	192	4
SI_	94	192	4	96	48	1
STR	94	288	1
SI_	94	288	1	96	48	6
STR	95	0	6
SI_	95	0	6	96	48	1
STR	95	96	1
SCL	95	96	1	96	96	2
TTP	95	192	0	C	0	M1
XST	95	288	7
SI_	95	288	7	96	48	4
STR	96	0	4
SI_	96	0	4	96	48	1
STR	96	96	1
SI_	96	96	1	96	48	4
STR	96	192	4
SI_	96	192	4	96	48	7
STR	96	288	7
SI_	96	288	7	96	48	2
STR	97	0	2
SI_	97	0	2	96	48	7
STR	97	96	7
SI_	97	96	7	96	48	3
BST	97	192	3
SI_	97	192	3	96	48	7
BST	97	288	7
SF_	97	288	7	96	48	3
TTP	98	24	0	C	1	M1

T_REC_TAP	245
T_REC_BRK	9
T_REC_XTP	11
T_REC_HLD	46
T_REC_XHO	0
T_REC_STR	126
T_REC_BST	7
T_REC_XST	22
T_REC_TTP	92
T_REC_THO	1
T_REC_SLD	155
T_REC_ALL	714
T_NUM_TAP	496
T_NUM_BRK	16
T_NUM_HLD	47
T_NUM_SLD	155
T_NUM_ALL	714
T_JUDGE_TAP	512
T_JUDGE_HLD	142
T_JUDGE_SLD	155
T_JUDGE_ALL	809
TTM_EACHPAIRS	51
TTM_SCR_TAP	248000
TTM_SCR_BRK	41600
TTM_SCR_HLD	47000
TTM_SCR_SLD	232500
TTM_SCR_ALL	569100
TTM_SCR_S	550500
TTM_SCR_SS	567500
TTM_RAT_ACV	10028

