VERSION	0.00.00	1.03.00
FES_MODE	0
BPM_DEF	170.000	170.000	170.000	170.000
MET_DEF	4	4
RESOLUTION	384
CLK_DEF	384
COMPATIBLE_CODE	MA2

BPM	0	0	170.000
MET	0	0	4	4

TAP	1	0	1
TAP	1	0	6
STR	1	192	0
SI_	1	192	0	96	48	3
STR	1	192	7
SI_	1	192	7	96	48	4
STR	2	0	6
SCL	2	0	6	96	1248	1
TTP	4	0	4	E	0	M1
TTP	5	0	0	C	0	M1
STR	6	0	0
SCR	6	0	0	96	1248	6
TTP	8	0	4	E	0	M1
TTP	9	0	0	C	0	M1
STR	10	0	6
SCL	10	0	6	96	480	2
TTP	11	192	0	C	0	M1
STR	12	0	1
SCR	12	0	1	96	480	5
TTP	13	192	0	C	0	M1
HLD	14	0	6	384
TTP	14	192	5	B	0	M1
TTP	14	288	0	C	0	M1
HLD	15	0	1	288
TTP	15	192	0	E	0	M1
TTP	15	288	0	C	0	M1
XST	16	0	3
SXR	16	0	3	96	288	0
XST	16	0	4
SXL	16	0	4	96	288	7
BRK	17	192	1
BRK	17	192	6
TAP	18	0	4
HLD	18	0	5	192
TAP	18	144	2
HLD	18	192	2	192
TAP	18	336	3
HLD	19	0	3	144
TAP	19	144	1
TAP	19	192	1
XTP	19	288	0
XTP	19	288	1
HLD	20	0	2	192
TAP	20	144	5
HLD	20	192	5	192
TAP	20	336	4
HLD	21	0	4	144
TAP	21	144	6
TAP	21	192	6
XTP	21	288	6
XTP	21	288	7
HLD	22	0	5	192
TAP	22	144	3
HLD	22	192	3	192
TAP	22	336	2
HLD	23	0	2	144
TAP	23	144	1
TAP	23	192	1
XTP	23	288	0
XTP	23	288	1
HLD	24	0	2	192
TAP	24	144	4
HLD	24	192	4	144
TAP	24	336	5
TAP	25	0	5
XTP	25	96	6
XTP	25	96	7
XTP	25	192	0
XTP	25	192	5
TAP	26	0	3
HLD	26	0	6	192
TAP	26	144	4
HLD	26	192	4	192
TAP	26	336	3
HLD	27	0	3	192
TAP	27	144	1
TAP	27	192	1
XTP	27	288	0
XTP	27	288	1
HLD	28	0	1	192
TAP	28	144	3
HLD	28	192	3	192
TAP	28	336	4
HLD	29	0	4	192
TAP	29	144	6
TAP	29	192	6
XTP	29	288	6
XTP	29	288	7
HLD	30	0	6	192
TAP	30	144	5
HLD	30	192	5	192
TAP	30	336	3
HLD	31	0	3	192
TAP	31	144	1
TAP	31	192	1
XTP	31	288	0
XTP	31	288	1
HLD	32	0	2	192
TAP	32	144	7
HLD	32	192	7	192
TAP	32	336	0
TAP	33	0	0
XTP	33	96	0
XTP	33	96	7
BRK	33	192	1
BRK	33	192	6
TAP	34	0	2
TAP	34	96	1
TAP	34	96	3
TAP	34	192	2
TAP	34	240	2
XTP	34	288	3
XTP	34	288	4
TAP	35	0	5
TAP	35	96	4
TAP	35	96	6
TAP	35	192	5
TAP	35	240	5
XTP	35	288	3
XTP	35	288	4
TAP	36	0	2
TAP	36	96	1
TAP	36	96	3
TAP	36	192	2
TAP	36	240	2
XTP	36	288	2
XTP	36	288	3
TAP	37	0	4
TAP	37	0	5
TAP	37	96	6
TAP	37	96	7
TAP	37	192	0
TAP	37	192	1
XTP	37	288	2
XTP	37	288	7
TAP	38	0	5
TAP	38	96	4
TAP	38	96	6
TAP	38	192	5
TAP	38	240	5
XTP	38	288	3
XTP	38	288	4
TAP	39	0	2
TAP	39	96	1
TAP	39	96	3
TAP	39	192	2
TAP	39	240	2
XTP	39	288	3
XTP	39	288	4
TAP	40	0	5
TAP	40	96	4
TAP	40	96	6
TAP	40	192	5
TAP	40	240	5
XTP	40	288	4
XTP	40	288	5
TAP	41	0	0
TAP	41	0	7
TAP	41	96	1
TAP	41	96	6
TAP	41	192	0
TAP	41	240	0
BRK	41	288	1
BRK	41	288	6
TAP	42	0	2
TAP	42	96	0
TAP	42	96	1
TAP	42	192	2
TAP	42	240	2
XTP	42	288	3
XTP	42	288	4
TAP	43	0	5
TAP	43	96	6
TAP	43	96	7
TAP	43	192	5
TAP	43	240	5
XTP	43	288	3
XTP	43	288	4
TAP	44	0	2
TAP	44	96	0
TAP	44	96	1
TAP	44	192	2
TAP	44	240	2
XTP	44	288	2
XTP	44	288	3
TAP	45	0	0
TAP	45	0	1
TAP	45	48	0
TAP	45	48	1
TAP	45	96	0
TAP	45	96	1
TAP	45	192	6
TAP	45	192	7
XTP	45	288	0
XTP	45	288	5
TAP	46	0	5
TAP	46	96	6
TAP	46	96	7
TAP	46	192	5
TAP	46	240	5
XTP	46	288	3
XTP	46	288	4
TAP	47	0	2
TAP	47	96	0
TAP	47	96	1
TAP	47	192	2
TAP	47	240	2
XTP	47	288	3
XTP	47	288	4
TAP	48	0	5
TAP	48	96	6
TAP	48	96	7
TAP	48	192	5
TAP	48	240	5
XTP	48	288	4
XTP	48	288	6
TAP	49	0	3
TAP	49	0	4
TAP	49	96	0
TAP	49	96	7
BRK	49	192	1
BRK	49	192	6
STR	50	0	0
SCL	50	0	0	96	480	2
HLD	50	0	6	576
HLD	52	0	1	576
STR	52	0	7
SCR	52	0	7	96	480	5
HLD	54	0	4	576
STR	54	0	6
SXR	54	0	6	96	480	2
STR	56	0	1
SXL	56	0	1	96	480	5
HLD	56	0	3	576
HLD	58	0	5	144
TAP	58	144	4
TAP	58	192	4
TAP	58	288	3
HLD	59	0	2	144
TAP	59	144	3
TAP	59	192	3
TAP	59	288	4
HLD	60	0	6	144
TAP	60	144	7
TAP	60	192	7
TAP	60	288	0
TAP	61	0	0
TAP	61	48	7
TAP	61	96	0
XTP	61	192	1
XTP	61	192	6
HLD	62	0	2	144
TAP	62	144	3
TAP	62	192	3
TAP	62	288	4
HLD	63	0	5	144
TAP	63	144	4
TAP	63	192	4
TAP	63	288	3
HLD	64	0	1	192
TAP	64	144	7
TAP	64	192	7
TAP	64	288	0
TAP	64	288	7
TTP	65	0	0	C	1	M1
TTP	65	0	2	B	0	M1
TTP	65	0	5	B	0	M1
TAP	66	0	1
HLD	66	0	7	96
TAP	66	96	3
HLD	66	192	2	96
TAP	66	192	3
TAP	66	288	7
HLD	67	0	0	96
TAP	67	0	6
TAP	67	96	4
TAP	67	192	4
HLD	67	192	5	96
TAP	67	288	0
STR	68	0	1
SI_	68	0	1	96	48	4
TAP	68	96	6
STR	68	192	5
SI_	68	192	5	96	48	0
TAP	68	288	2
STR	69	0	1
SI_	69	0	1	96	48	4
STR	69	96	7
SI_	69	96	7	96	48	3
XTP	69	192	0
XTP	69	288	0
TAP	70	0	7
TAP	70	96	4
TAP	70	96	6
TAP	70	192	0
TAP	70	288	1
TAP	70	288	3
TAP	71	0	7
TAP	71	96	4
TAP	71	96	5
TAP	71	192	0
XTP	71	288	1
XTP	71	288	7
HLD	72	0	6	96
HLD	72	96	4	96
HLD	72	192	3	96
XTP	72	288	1
TAP	73	0	0
TAP	73	0	7
TAP	73	96	1
TAP	73	96	6
BRK	73	192	2
BRK	73	192	5
HLD	74	0	0	96
TAP	74	0	6
TAP	74	96	4
TAP	74	192	4
HLD	74	192	5	96
TAP	74	288	0
TAP	75	0	1
HLD	75	0	7	96
TAP	75	96	3
HLD	75	192	2	96
TAP	75	192	3
TAP	75	288	7
STR	76	0	6
SI_	76	0	6	96	48	3
TAP	76	96	1
STR	76	192	2
SI_	76	192	2	96	48	7
TAP	76	288	5
STR	77	0	6
SI_	77	0	6	96	48	3
STR	77	96	0
SI_	77	96	0	96	48	4
XTP	77	192	7
XTP	77	288	7
TAP	78	0	0
TAP	78	96	1
TAP	78	96	3
TAP	78	192	7
TAP	78	288	4
TAP	78	288	6
TAP	79	0	0
TAP	79	96	2
TAP	79	96	3
TAP	79	192	7
XTP	79	288	0
XTP	79	288	6
HLD	80	0	1	96
HLD	80	96	3	96
HLD	80	192	4	96
XTP	80	288	6
TAP	81	0	0
TAP	81	0	7
TAP	81	96	3
TAP	81	96	4
BRK	81	192	1
BRK	81	192	6
TAP	82	0	0
TAP	82	48	0
TAP	82	96	7
TAP	82	144	1
TAP	82	192	2
TAP	82	192	3
TAP	82	288	1
TAP	82	288	4
TAP	83	0	4
TAP	83	48	4
TAP	83	96	3
TAP	83	144	5
XTP	83	192	4
XTP	83	192	6
XTP	83	288	0
XTP	83	288	6
TAP	84	0	7
TAP	84	48	7
TAP	84	96	0
TAP	84	144	6
TAP	84	192	4
TAP	84	192	5
TAP	84	288	3
TAP	84	288	6
TAP	85	0	4
TAP	85	48	4
TAP	85	96	3
TAP	85	144	3
XTP	85	192	2
XTP	85	192	5
TAP	86	0	0
TAP	86	48	0
TAP	86	96	7
TAP	86	144	1
TAP	86	192	2
TAP	86	192	3
TAP	86	288	4
TAP	86	288	5
TAP	87	0	6
TAP	87	48	6
TAP	87	96	4
TAP	87	144	5
XTP	87	192	4
XTP	87	192	5
XTP	87	288	0
XTP	87	288	1
TAP	88	0	7
TAP	88	48	7
TAP	88	96	0
TAP	88	144	6
TAP	88	192	4
TAP	88	192	5
TAP	88	288	2
TAP	88	288	3
TAP	89	0	0
TAP	89	48	0
TAP	89	96	7
TAP	89	144	7
BRK	89	192	1
BRK	89	192	6
TAP	90	0	0
TAP	90	48	7
TAP	90	96	0
TAP	90	144	6
XTP	90	192	4
XTP	90	192	5
TTP	90	288	3	B	0	M1
TTP	90	288	4	B	0	M1
TTP	90	288	4	E	0	M1
XTP	91	0	6
XTP	91	0	7
XTP	91	96	0
XTP	91	96	5
TTP	91	192	3	B	0	M1
TTP	91	192	4	B	0	M1
TTP	91	192	4	E	0	M1
TTP	91	288	0	C	0	M1
TTP	91	288	2	B	0	M1
TTP	91	288	5	B	0	M1
TAP	92	0	7
TAP	92	48	0
TAP	92	96	7
TAP	92	144	1
XTP	92	192	2
XTP	92	192	3
TTP	92	288	3	B	0	M1
TTP	92	288	4	E	0	M1
TTP	92	288	4	B	0	M1
XTP	93	0	0
XTP	93	0	1
XTP	93	96	2
XTP	93	96	7
TTP	93	192	0	C	0	M1
TTP	93	192	2	B	0	M1
TTP	93	192	6	B	0	M1
TAP	94	0	1
TAP	94	48	0
TAP	94	96	1
TAP	94	144	7
XTP	94	192	0
XTP	94	192	6
TTP	94	288	3	B	0	M1
TTP	94	288	4	E	0	M1
TTP	94	288	4	B	0	M1
XTP	95	0	0
XTP	95	0	1
XTP	95	96	2
XTP	95	96	7
TTP	95	192	3	B	0	M1
TTP	95	192	4	E	0	M1
TTP	95	192	4	B	0	M1
TTP	95	288	0	C	0	M1
TTP	95	288	2	B	0	M1
TTP	95	288	5	B	0	M1
TAP	96	0	6
TAP	96	48	7
TAP	96	96	6
TAP	96	144	0
XTP	96	192	1
XTP	96	192	7
TTP	96	288	3	B	0	M1
TTP	96	288	4	B	0	M1
TTP	96	288	4	E	0	M1
TTP	97	0	2	B	0	M1
TTP	97	0	5	B	0	M1
TTP	97	96	1	E	0	M1
TTP	97	96	7	E	0	M1
TTP	97	192	3	E	0	M1
TTP	97	192	5	E	0	M1
TTP	97	288	2	E	0	M1
TTP	97	288	6	E	0	M1
TTP	98	0	0	C	1	M1
TTP	98	0	1	B	0	M1
TTP	98	0	2	B	0	M1
TTP	98	0	5	B	0	M1
TTP	98	0	6	B	0	M1

T_REC_TAP	252
T_REC_BRK	14
T_REC_XTP	88
T_REC_HLD	48
T_REC_XHO	0
T_REC_STR	18
T_REC_BST	0
T_REC_XST	2
T_REC_TTP	53
T_REC_THO	0
T_REC_SLD	20
T_REC_ALL	495
T_NUM_TAP	413
T_NUM_BRK	14
T_NUM_HLD	48
T_NUM_SLD	20
T_NUM_ALL	495
T_JUDGE_TAP	427
T_JUDGE_HLD	193
T_JUDGE_SLD	20
T_JUDGE_ALL	640
TTM_EACHPAIRS	107
TTM_SCR_TAP	206500
TTM_SCR_BRK	36400
TTM_SCR_HLD	48000
TTM_SCR_SLD	30000
TTM_SCR_ALL	320900
TTM_SCR_S	309950
TTM_SCR_SS	319500
TTM_RAT_ACV	10043

