VERSION	0.00.00	1.03.00
FES_MODE	0
BPM_DEF	170.000	170.000	170.000	170.000
MET_DEF	4	4
RESOLUTION	384
CLK_DEF	384
COMPATIBLE_CODE	MA2

BPM	0	0	170.000
MET	0	0	4	4

STR	2	0	7
SCL	2	0	7	96	1248	1
STR	6	0	0
SCR	6	0	0	96	1248	5
STR	10	0	7
SCL	10	0	7	96	384	4
XTP	11	192	3
XTP	11	288	3
STR	12	0	3
SCL	12	0	3	96	384	0
XTP	13	192	7
XTP	13	288	7
STR	14	0	7
SI_	14	0	7	96	384	4
XTP	15	192	3
XTP	15	288	3
BRK	16	0	3
BRK	16	0	4
XTP	16	192	1
XTP	16	192	6
XTP	17	0	0
XTP	17	0	7
XTP	17	96	0
XTP	17	96	7
BRK	17	192	1
BRK	17	192	6
HLD	18	0	5	288
TAP	18	288	4
HLD	19	0	3	288
TAP	19	288	4
HLD	20	0	5	288
TAP	20	288	4
TAP	21	0	3
TAP	21	96	3
XTP	21	192	3
XTP	21	192	4
HLD	22	0	2	288
TAP	22	288	3
HLD	23	0	4	288
TAP	23	288	3
HLD	24	0	2	288
TAP	24	288	3
TAP	25	0	4
TAP	25	96	5
BRK	25	192	4
BRK	25	192	6
HLD	26	0	5	192
TAP	26	192	4
TAP	26	288	3
HLD	27	0	2	192
TAP	27	192	3
TAP	27	288	4
HLD	28	0	5	192
TAP	28	192	4
TAP	28	288	3
TAP	29	0	2
TAP	29	96	2
XTP	29	192	2
XTP	29	192	3
HLD	30	0	2	192
TAP	30	192	3
TAP	30	288	4
HLD	31	0	5	192
TAP	31	192	4
TAP	31	288	3
TAP	32	0	2
TAP	32	96	2
TAP	32	192	2
TAP	32	192	3
TAP	33	0	1
TAP	33	96	0
BRK	33	192	1
BRK	33	192	6
TAP	34	0	0
TAP	34	96	0
TAP	34	192	1
TAP	34	288	1
TAP	35	0	2
TAP	35	96	2
XTP	35	192	2
XTP	35	192	3
TAP	36	0	5
TAP	36	96	5
TAP	36	192	4
TAP	36	288	4
STR	37	0	3
SCL	37	0	3	96	192	0
XTP	38	0	7
XTP	38	96	7
TAP	38	192	6
TAP	38	288	6
TAP	39	0	5
TAP	39	96	5
XTP	39	192	4
XTP	39	192	6
TAP	40	0	2
TAP	40	96	2
TAP	40	192	1
TAP	40	288	1
TAP	41	0	0
TAP	41	96	0
XTP	41	192	1
XTP	41	192	6
TAP	42	0	7
TAP	42	96	7
TAP	42	192	6
TAP	42	288	6
TAP	43	0	5
TAP	43	96	5
XTP	43	192	4
XTP	43	192	5
TAP	44	0	2
TAP	44	96	2
TAP	44	192	3
TAP	44	288	3
STR	45	0	4
SCR	45	0	4	96	192	7
XTP	46	0	0
XTP	46	96	0
TAP	46	192	1
TAP	46	288	1
TAP	47	0	2
TAP	47	96	2
XTP	47	192	1
XTP	47	192	3
TAP	48	0	5
TAP	48	96	5
TAP	48	192	6
TAP	48	288	6
TAP	49	0	7
TAP	49	96	7
BRK	49	192	1
BRK	49	192	6
TTP	50	0	6	B	0	L1
TTP	50	192	4	B	0	L1
TTP	51	0	2	B	0	L1
TTP	52	0	1	B	0	L1
TTP	52	192	3	B	0	L1
TTP	53	0	5	B	0	L1
TTP	54	0	6	B	0	L1
TTP	54	192	0	C	0	L1
TTP	55	0	2	B	0	L1
TTP	55	192	1	B	0	L1
TTP	56	0	0	C	0	L1
TTP	56	192	5	B	0	L1
TTP	57	0	0	C	0	L1
TTP	58	0	6	B	0	L1
TTP	58	192	4	B	0	L1
TTP	59	0	2	B	0	L1
TTP	59	0	3	B	0	L1
TTP	60	0	1	B	0	L1
TTP	60	192	3	B	0	L1
TTP	61	0	4	B	0	L1
TTP	61	0	5	B	0	L1
TTP	62	0	6	B	0	L1
TTP	62	192	0	C	0	L1
TTP	63	0	2	B	0	L1
TTP	63	192	4	E	0	L1
TTP	64	0	3	B	0	L1
TTP	64	0	4	B	0	L1
TTP	64	192	2	B	0	L1
TTP	64	192	5	B	0	L1
TTP	65	0	0	C	1	L1
TAP	66	0	6
TAP	66	96	6
TAP	66	96	7
TAP	66	192	1
TAP	66	288	0
TAP	66	288	1
TAP	67	0	6
TAP	67	96	6
TAP	67	96	7
XTP	67	192	0
XTP	67	192	5
HLD	68	0	5	96
TAP	68	96	4
HLD	68	192	2	96
TAP	68	288	3
STR	69	0	3
SI_	69	0	3	96	192	0
STR	69	0	4
SI_	69	0	4	96	192	7
TAP	70	0	1
TAP	70	96	0
TAP	70	96	1
TAP	70	192	6
TAP	70	288	6
TAP	70	288	7
TAP	71	0	1
TAP	71	96	0
TAP	71	96	1
XTP	71	192	2
XTP	71	192	7
HLD	72	0	2	96
TAP	72	96	3
HLD	72	192	5	96
TAP	72	288	4
TAP	73	0	6
XTP	73	96	6
XTP	73	96	7
XTP	73	192	0
XTP	73	192	5
TAP	74	0	6
TAP	74	96	6
TAP	74	96	7
TAP	74	192	1
TAP	74	288	0
TAP	74	288	1
TAP	75	0	2
TAP	75	96	2
TAP	75	96	3
XTP	75	192	1
XTP	75	192	4
HLD	76	0	5	96
TAP	76	96	4
HLD	76	192	2	96
TAP	76	288	3
STR	77	0	3
SCL	77	0	3	96	192	0
STR	77	0	4
SCR	77	0	4	96	192	7
TAP	78	0	1
TAP	78	96	0
TAP	78	96	1
TAP	78	192	6
TAP	78	288	6
TAP	78	288	7
TAP	79	0	5
TAP	79	96	4
TAP	79	96	5
XTP	79	192	3
XTP	79	192	6
HLD	80	0	2	96
TAP	80	96	3
HLD	80	192	5	96
TAP	80	288	4
TAP	81	0	6
XTP	81	96	0
XTP	81	96	7
BRK	81	192	1
BRK	81	192	6
TAP	82	0	0
TAP	82	96	1
TAP	82	192	2
TAP	82	288	3
TAP	83	0	4
TAP	83	96	5
XTP	83	192	6
XTP	83	192	7
TAP	84	0	5
TAP	84	96	4
TAP	84	192	3
TAP	84	288	2
TAP	85	0	1
TAP	85	96	0
XTP	85	192	1
XTP	85	192	6
TAP	86	0	7
TAP	86	96	6
TAP	86	192	5
TAP	86	288	4
TAP	87	0	3
TAP	87	96	2
XTP	87	192	0
XTP	87	192	1
TAP	88	0	2
TAP	88	96	3
TAP	88	192	4
TAP	88	288	5
TAP	89	0	6
TAP	89	96	7
BRK	89	192	1
BRK	89	192	6
XTP	90	0	7
XTP	90	48	7
XTP	90	96	7
TAP	90	192	6
TAP	90	288	5
TAP	91	0	4
TAP	91	96	3
XTP	91	192	2
XTP	91	192	4
XTP	92	0	3
XTP	92	48	3
XTP	92	96	3
TAP	92	192	4
TAP	92	288	5
TAP	93	0	6
TAP	93	96	7
XTP	93	192	1
XTP	93	192	6
XTP	94	0	7
XTP	94	48	7
XTP	94	96	7
TAP	94	192	6
TAP	94	288	5
TAP	95	0	4
TAP	95	96	3
XTP	95	192	3
XTP	95	192	4
TTP	96	0	4	E	0	L1
TTP	96	192	3	B	0	L1
TTP	96	192	4	B	0	L1
THO	97	0	0	384	C	1	L1
TTP	97	0	2	B	0	L1
TTP	97	0	5	B	0	L1

T_REC_TAP	150
T_REC_BRK	14
T_REC_XTP	65
T_REC_HLD	19
T_REC_XHO	0
T_REC_STR	11
T_REC_BST	0
T_REC_XST	0
T_REC_TTP	35
T_REC_THO	1
T_REC_SLD	11
T_REC_ALL	306
T_NUM_TAP	261
T_NUM_BRK	14
T_NUM_HLD	20
T_NUM_SLD	11
T_NUM_ALL	306
T_JUDGE_TAP	275
T_JUDGE_HLD	80
T_JUDGE_SLD	11
T_JUDGE_ALL	366
TTM_EACHPAIRS	45
TTM_SCR_TAP	130500
TTM_SCR_BRK	36400
TTM_SCR_HLD	20000
TTM_SCR_SLD	16500
TTM_SCR_ALL	203400
TTM_SCR_S	195950
TTM_SCR_SS	202000
TTM_RAT_ACV	10069

