VERSION	0.00.00	1.03.00
FES_MODE	0
BPM_DEF	170.000	170.000	170.000	170.000
MET_DEF	4	4
RESOLUTION	384
CLK_DEF	384
COMPATIBLE_CODE	MA2

BPM	0	0	170.000
MET	0	0	4	4

TAP	10	0	2
TAP	11	0	2
TAP	12	0	3
TAP	13	0	3
TAP	14	0	4
TAP	15	0	4
TAP	16	0	5
TAP	17	0	4
TAP	17	0	5
TAP	18	0	4
TAP	18	192	4
TAP	19	0	4
TAP	20	0	5
TAP	20	192	5
TAP	21	0	5
TAP	22	0	6
TAP	22	192	6
TAP	23	0	6
TAP	24	0	7
TAP	24	192	7
TAP	25	0	7
TAP	26	0	0
TAP	26	192	0
TAP	27	0	0
TAP	28	0	1
TAP	28	192	1
TAP	29	0	1
TAP	30	0	2
TAP	30	192	2
TAP	31	0	2
TAP	32	0	3
TAP	32	192	3
BRK	33	0	4
TAP	34	0	2
TAP	34	192	2
TAP	35	0	2
TAP	35	0	3
TAP	36	0	1
TAP	36	192	1
TAP	37	0	0
TAP	37	0	1
TAP	38	0	7
TAP	38	192	7
TAP	39	0	0
TAP	39	0	7
TAP	40	0	6
TAP	40	192	6
BRK	41	0	6
TAP	42	0	5
TAP	42	192	5
TAP	43	0	4
TAP	43	0	5
TAP	44	0	6
TAP	44	192	6
TAP	45	0	6
TAP	45	0	7
TAP	46	0	0
TAP	46	192	0
TAP	47	0	0
TAP	47	0	7
TAP	48	0	1
TAP	48	192	1
BRK	49	0	1
STR	50	0	1
SI_	50	0	1	96	288	4
STR	52	0	6
SI_	52	0	6	96	288	3
HLD	54	0	3	384
HLD	56	0	4	384
TTP	58	0	5	E	0	L1
TTP	59	0	4	E	0	L1
TTP	60	0	3	E	0	L1
TTP	61	0	4	E	0	L1
TTP	62	0	3	E	0	L1
TTP	62	0	5	E	0	L1
TTP	63	0	2	B	0	L1
TTP	63	0	5	B	0	L1
THO	64	0	0	384	C	1	L1
TAP	66	0	0
TAP	66	96	0
TAP	66	192	0
TAP	67	0	1
TAP	67	96	1
TAP	67	192	1
TAP	68	0	2
TAP	68	96	2
TAP	68	192	2
TAP	69	0	3
TAP	69	0	4
TAP	70	0	4
TAP	70	96	4
TAP	70	192	4
TAP	71	0	5
TAP	71	96	5
TAP	71	192	5
TAP	72	0	6
TAP	72	96	6
TAP	72	192	6
TAP	73	0	0
TAP	73	0	7
TAP	74	0	7
TAP	74	96	7
TAP	74	192	7
TAP	75	0	6
TAP	75	96	6
TAP	75	192	6
TAP	76	0	5
TAP	76	96	5
TAP	76	192	5
TAP	77	0	3
TAP	77	0	4
TAP	78	0	2
TAP	78	96	2
TAP	78	192	2
TAP	79	0	3
TAP	79	0	4
TAP	79	96	3
TAP	79	96	4
TAP	79	192	3
TAP	79	192	4
TAP	80	0	5
TAP	80	96	5
TAP	80	192	5
BRK	81	0	4
TTP	82	0	4	E	0	L1
TTP	83	0	3	E	0	L1
TTP	84	0	2	E	0	L1
TTP	85	0	1	E	0	L1
TTP	86	0	0	E	0	L1
TTP	87	0	7	E	0	L1
TTP	88	0	6	E	0	L1
TTP	89	0	5	E	0	L1
TAP	90	0	3
TAP	90	96	3
TAP	90	192	3
HLD	91	0	4	192
TAP	92	0	5
TAP	92	96	5
TAP	92	192	5
TAP	93	0	6
TAP	93	96	6
TAP	93	192	6
TAP	93	192	7
TAP	94	0	0
TAP	94	96	0
TAP	94	192	0
HLD	95	0	1	192
TAP	96	0	2
TAP	96	96	2
TAP	96	192	2
TAP	97	0	3
TAP	97	96	3
TAP	97	192	3
TAP	97	192	4
TTP	98	0	0	C	1	L1

T_REC_TAP	125
T_REC_BRK	4
T_REC_XTP	0
T_REC_HLD	4
T_REC_XHO	0
T_REC_STR	2
T_REC_BST	0
T_REC_XST	0
T_REC_TTP	17
T_REC_THO	1
T_REC_SLD	2
T_REC_ALL	155
T_NUM_TAP	144
T_NUM_BRK	4
T_NUM_HLD	5
T_NUM_SLD	2
T_NUM_ALL	155
T_JUDGE_TAP	148
T_JUDGE_HLD	32
T_JUDGE_SLD	2
T_JUDGE_ALL	182
TTM_EACHPAIRS	15
TTM_SCR_TAP	72000
TTM_SCR_BRK	10400
TTM_SCR_HLD	5000
TTM_SCR_SLD	3000
TTM_SCR_ALL	90400
TTM_SCR_S	87300
TTM_SCR_SS	90000
TTM_RAT_ACV	10044

