VERSION	0.00.00	1.03.00
FES_MODE	0
BPM_DEF	180.000	180.000	180.000	180.000
MET_DEF	4	4
RESOLUTION	384
CLK_DEF	384
COMPATIBLE_CODE	MA2

BPM	0	0	180.000
MET	0	0	4	4

STR	1	0	3
SI_	1	0	3	96	192	7
STR	1	0	4
SI_	1	0	4	96	192	0
HLD	2	0	2	288
TAP	2	0	3
TAP	2	96	3
TAP	2	192	3
TAP	2	288	3
TAP	3	0	2
HLD	3	0	3	288
TAP	3	96	2
TAP	3	192	2
TAP	3	288	2
TAP	4	0	4
HLD	4	0	5	288
TAP	4	96	4
TAP	4	192	4
TAP	4	288	4
HLD	5	0	4	288
TAP	5	0	5
TAP	5	96	5
TAP	5	192	5
TAP	5	288	5
TAP	6	0	2
HLD	6	0	3	96
TAP	6	96	2
TAP	6	192	1
HLD	6	192	2	96
TAP	6	288	1
HLD	7	0	2	96
TAP	7	0	3
TAP	7	96	3
TAP	7	192	3
HLD	7	192	4	96
TAP	7	288	3
HLD	8	0	4	96
TAP	8	0	5
TAP	8	96	5
TAP	8	192	5
HLD	8	192	6	96
TAP	8	288	5
STR	9	0	0
SI_	9	0	0	96	48	4
STR	9	0	7
SI_	9	0	7	96	48	3
TAP	9	96	0
TAP	9	96	7
TAP	9	192	2
TAP	9	216	3
TAP	9	240	2
XTP	9	288	0
XTP	9	288	5
BRK	10	0	7
TAP	10	48	7
TAP	10	96	3
TAP	10	144	3
TAP	10	192	5
TAP	10	240	4
TAP	10	288	2
TAP	10	336	3
BRK	11	0	6
TAP	11	48	6
TAP	11	96	2
TAP	11	144	2
TAP	11	192	4
TAP	11	240	0
TAP	11	288	4
TAP	11	336	0
BRK	12	0	5
TAP	12	48	5
TAP	12	96	1
TAP	12	144	1
TAP	12	192	6
TAP	12	240	7
TAP	12	288	1
TAP	12	336	0
BRK	13	0	4
TAP	13	48	4
TAP	13	96	0
TAP	13	144	0
TAP	13	192	7
TAP	13	240	6
TAP	13	288	5
TAP	13	336	4
BRK	14	0	3
TAP	14	48	3
TAP	14	96	7
TAP	14	144	7
TAP	14	192	2
TAP	14	240	3
TAP	14	288	5
TAP	14	336	4
BRK	15	0	2
TAP	15	48	2
TAP	15	96	6
TAP	15	144	6
TAP	15	192	0
TAP	15	240	4
TAP	15	288	0
TAP	15	336	4
BRK	16	0	1
TAP	16	48	1
TAP	16	96	5
TAP	16	144	5
TAP	16	192	1
TAP	16	240	0
TAP	16	288	7
TAP	16	336	6
XHO	17	0	0	192
TTP	17	192	0	C	1	M1
XTP	18	0	0
XTP	18	0	7
TAP	18	48	7
TAP	18	96	2
TAP	18	120	3
TAP	18	144	2
TAP	18	192	0
TAP	18	240	0
TAP	18	288	5
TAP	18	312	4
TAP	18	336	5
TAP	19	0	7
TAP	19	48	7
TAP	19	96	2
TAP	19	120	3
TAP	19	144	2
TTP	19	192	7	E	0	M1
TTP	19	240	1	E	0	M1
TTP	19	288	5	E	0	M1
TTP	19	336	3	E	0	M1
XTP	20	0	0
XTP	20	0	7
TAP	20	48	0
TAP	20	96	5
TAP	20	120	4
TAP	20	144	5
TAP	20	192	7
TAP	20	240	7
TAP	20	288	2
TAP	20	312	3
TAP	20	336	2
TAP	21	0	0
TAP	21	48	0
TAP	21	96	5
TAP	21	120	4
TAP	21	144	5
TTP	21	192	3	E	0	M1
TTP	21	240	7	E	0	M1
TTP	21	288	1	E	0	M1
TTP	21	336	5	E	0	M1
XTP	22	0	0
XTP	22	0	7
TAP	22	48	7
TAP	22	96	2
TAP	22	120	3
TAP	22	144	2
TAP	22	192	0
TAP	22	240	0
TAP	22	288	5
TAP	22	312	4
TAP	22	336	5
TAP	23	0	7
TAP	23	48	7
TAP	23	96	2
TAP	23	120	3
TAP	23	144	2
TTP	23	192	5	E	0	M1
TTP	23	240	7	E	0	M1
TTP	23	288	1	E	0	M1
TTP	23	336	3	E	0	M1
XST	24	0	0
SI_	24	0	0	96	48	2
XST	24	0	7
SI_	24	0	7	96	48	3
XTP	24	96	0
XTP	24	96	7
XST	24	192	0
SI_	24	192	0	96	48	4
XST	24	192	7
SI_	24	192	7	96	48	5
XTP	24	288	0
XTP	24	288	7
XTP	25	0	3
XTP	25	0	6
TAP	25	48	1
TAP	25	72	0
TAP	25	96	1
XTP	25	144	2
XTP	25	144	7
XST	25	192	1
SI_	25	192	1	96	48	4
XST	25	192	6
SI_	25	192	6	96	48	3
BRK	25	288	1
BRK	25	288	6
XTP	26	0	0
XTP	26	0	7
TAP	26	48	7
TAP	26	96	2
TAP	26	120	3
TAP	26	144	2
TAP	26	192	0
TAP	26	240	0
TAP	26	288	5
TAP	26	312	4
TAP	26	336	5
STR	27	0	1
SI_	27	0	1	96	48	5
TAP	27	48	1
STR	27	96	3
SI_	27	96	3	96	48	7
TAP	27	144	3
TAP	27	192	0
BRK	27	288	2
BRK	27	288	6
XTP	28	0	3
XTP	28	0	4
TAP	28	48	3
TAP	28	96	6
TAP	28	120	7
TAP	28	144	6
TAP	28	192	4
TAP	28	240	4
TAP	28	288	1
TAP	28	312	0
TAP	28	336	1
STR	29	0	7
SCL	29	0	7	96	48	4
TAP	29	48	7
STR	29	96	0
SCR	29	96	0	96	48	3
TAP	29	144	0
TTP	29	192	0	C	0	M1
BRK	29	288	1
BRK	29	288	6
XTP	30	0	0
XTP	30	0	7
TAP	30	48	0
TAP	30	96	5
TAP	30	120	4
TAP	30	144	5
TAP	30	192	7
TAP	30	240	7
TAP	30	288	2
TAP	30	312	3
TAP	30	336	2
STR	31	0	6
SI_	31	0	6	96	48	2
TAP	31	48	6
STR	31	96	4
SI_	31	96	4	96	48	0
TAP	31	144	4
TAP	31	192	7
BRK	31	288	1
BRK	31	288	5
HLD	32	0	3	96
TAP	32	0	7
TTP	32	96	0	C	1	M1
TAP	32	192	0
HLD	32	192	4	96
TTP	32	288	0	C	1	M1
XTP	33	0	6
XTP	33	0	7
XTP	33	72	3
XTP	33	72	4
XTP	33	144	0
XTP	33	144	1
BRK	33	240	2
BRK	33	240	7
BRK	33	288	0
BRK	33	288	5
TTP	34	0	0	B	0	M1
THO	34	0	0	384	C	1	M1
TTP	34	0	1	B	0	M1
TTP	34	0	6	B	0	M1
TTP	34	0	7	B	0	M1
XTP	35	336	0
XTP	35	336	7
THO	36	0	0	384	C	1	M1
TTP	36	0	1	B	0	M1
TTP	36	0	2	B	0	M1
TTP	36	0	5	B	0	M1
TTP	36	0	6	B	0	M1
XTP	37	288	3
XTP	37	288	4
TTP	38	0	0	B	0	M1
THO	38	0	0	192	C	1	M1
TTP	38	0	1	B	0	M1
TTP	38	0	6	B	0	M1
TTP	38	0	7	B	0	M1
XTP	38	336	0
XTP	38	336	7
THO	39	0	0	192	C	1	M1
TTP	39	0	2	B	0	M1
TTP	39	0	3	B	0	M1
TTP	39	0	4	B	0	M1
TTP	39	0	5	B	0	M1
XTP	39	336	1
XTP	39	336	6
THO	40	0	0	576	C	0	M1
TTP	40	0	1	B	0	M1
TTP	40	0	2	B	0	M1
TTP	40	0	5	B	0	M1
TTP	40	0	6	B	0	M1
TTP	40	192	1	E	0	M1
TTP	41	0	7	E	0	M1
TTP	41	192	0	E	0	M1
BRK	41	288	1
BRK	41	288	6
TAP	42	0	4
TAP	42	48	4
TAP	42	96	2
TAP	42	120	3
TAP	42	144	2
TAP	42	192	1
TAP	42	240	1
TAP	42	288	2
TAP	42	312	3
TAP	42	336	2
TAP	43	0	4
TAP	43	48	4
TAP	43	96	2
TAP	43	120	3
TAP	43	144	2
XTP	43	192	1
XTP	43	240	0
XTP	43	288	7
XTP	43	336	6
TAP	44	0	3
TAP	44	48	3
TAP	44	96	5
TAP	44	120	4
TAP	44	144	5
TAP	44	192	6
TAP	44	240	6
TAP	44	288	5
TAP	44	312	4
TAP	44	336	5
TAP	45	0	3
TAP	45	48	3
TAP	45	96	5
TAP	45	120	4
TAP	45	144	5
XTP	45	192	6
XTP	45	240	7
XTP	45	288	0
XTP	45	336	1
XTP	46	0	2
XTP	46	0	3
TAP	46	48	2
TAP	46	96	4
TAP	46	144	4
XTP	46	192	3
XTP	46	192	5
TAP	46	240	5
TAP	46	288	3
TAP	46	336	3
XTP	47	0	2
XTP	47	0	4
TAP	47	48	5
TAP	47	96	6
TAP	47	144	7
XTP	47	192	3
XTP	47	192	6
TAP	47	240	2
TAP	47	288	1
TAP	47	336	0
XTP	48	0	1
XTP	48	0	4
TAP	48	48	1
TAP	48	48	4
TAP	48	96	2
TAP	48	120	3
TAP	48	144	2
XTP	48	192	3
XTP	48	192	6
TAP	48	240	3
TAP	48	240	6
TAP	48	288	5
TAP	48	312	4
TAP	48	336	5
XTP	49	0	0
XTP	49	0	7
TAP	49	48	0
TAP	49	48	7
TAP	49	96	3
TAP	49	120	4
TAP	49	144	3
XTP	49	192	2
XTP	49	192	5
XTP	49	240	1
XTP	49	240	6
XST	49	288	0
SCR	49	288	0	96	1152	7
XTP	49	288	7
TTP	50	0	0	C	1	M1
TTP	54	0	0	E	0	M1
TTP	54	96	0	C	0	M1
TTP	54	192	4	E	0	M1
TAP	54	288	5
HLD	54	336	5	144
TTP	55	96	5	E	0	M1
TTP	55	192	4	E	0	M1
TTP	55	288	3	E	0	M1
TTP	56	0	0	E	0	M1
TTP	56	96	0	C	0	M1
TTP	56	192	4	E	0	M1
TAP	56	288	2
HLD	56	336	2	144
TTP	57	96	3	E	0	M1
TTP	57	192	4	E	0	M1
TTP	57	288	5	E	0	M1
STR	58	0	6
SCL	58	0	6	96	288	2
STR	59	0	1
SI_	59	0	1	96	96	5
STR	59	192	6
SI_	59	192	6	96	96	2
STR	60	0	7
SCL	60	0	7	96	480	0
TTP	61	0	7	E	0	M1
TTP	61	96	5	E	0	M1
TTP	61	192	0	C	0	M1
STR	62	0	2
SCL	62	0	2	96	288	6
STR	63	0	5
SI_	63	0	5	96	96	1
STR	63	192	2
SI_	63	192	2	96	96	6
STR	64	0	0
SCR	64	0	0	96	480	7
TTP	65	0	1	E	0	M1
TTP	65	96	3	E	0	M1
TTP	65	192	0	C	0	M1
BRK	65	288	1
BRK	65	288	6
HLD	66	0	2	96
TTP	66	96	2	B	0	M1
TTP	66	96	3	B	0	M1
HLD	66	192	5	96
TTP	66	288	4	B	0	M1
TTP	66	288	5	B	0	M1
TTP	67	0	2	E	0	M1
TTP	67	48	3	E	0	M1
TTP	67	96	0	C	0	M1
TTP	67	144	5	E	0	M1
TTP	67	192	6	E	0	M1
TAP	67	288	3
TAP	67	288	4
TAP	68	0	1
TAP	68	48	1
TAP	68	96	3
TAP	68	144	3
TAP	68	192	4
TAP	68	240	2
TAP	68	264	3
TAP	68	288	2
TAP	68	336	1
TAP	69	0	6
TAP	69	48	6
TAP	69	96	4
TAP	69	144	4
HLD	69	192	3	96
HLD	69	192	5	96
HLD	70	0	5	96
TTP	70	96	4	B	0	M1
TTP	70	96	5	B	0	M1
HLD	70	192	2	96
TTP	70	288	2	B	0	M1
TTP	70	288	3	B	0	M1
TTP	71	0	6	E	0	M1
TTP	71	48	5	E	0	M1
TTP	71	96	0	C	0	M1
TTP	71	144	3	E	0	M1
TTP	71	192	2	E	0	M1
TAP	71	288	3
TAP	71	288	4
TAP	72	0	6
TAP	72	48	6
TAP	72	96	4
TAP	72	144	4
TAP	72	192	3
TAP	72	240	5
TAP	72	264	4
TAP	72	288	5
TAP	72	336	6
THO	73	0	0	192	C	1	M1
BRK	73	288	1
BRK	73	288	5
STR	74	0	6
SI_	74	0	6	96	48	3
TAP	74	96	6
TAP	74	96	7
STR	74	192	1
SI_	74	192	1	96	48	4
TAP	74	288	0
TAP	74	288	1
HLD	74	336	7	96
TAP	75	48	5
TAP	75	96	4
TAP	75	144	3
TAP	75	192	0
TAP	75	192	2
TAP	75	288	4
TAP	75	288	6
TAP	76	0	2
TAP	76	0	3
TAP	76	48	1
TAP	76	96	0
TAP	76	144	7
TAP	76	192	6
TAP	76	240	5
TAP	76	264	4
TAP	76	288	5
TAP	76	336	3
TAP	77	0	4
TAP	77	0	5
TAP	77	48	6
TAP	77	96	4
TAP	77	96	5
TAP	77	144	3
STR	77	192	4
SI_	77	192	4	96	48	0
STR	77	192	5
SI_	77	192	5	96	48	0
STR	78	0	1
SI_	78	0	1	96	48	4
TAP	78	96	0
TAP	78	96	1
STR	78	192	6
SI_	78	192	6	96	48	3
TAP	78	288	6
TAP	78	288	7
HLD	78	336	0	96
TAP	79	48	2
TAP	79	96	3
TAP	79	144	4
TAP	79	192	5
TAP	79	192	7
TAP	79	288	1
TAP	79	288	3
TAP	80	0	4
HLD	80	0	6	96
TAP	80	96	7
HLD	80	192	1	96
TAP	80	192	3
TAP	80	288	0
TAP	80	336	2
TAP	80	336	7
TAP	81	48	2
TAP	81	48	6
TAP	81	96	1
TAP	81	96	5
TAP	81	144	0
TAP	81	144	4
STR	81	192	3
SI_	81	192	3	96	48	6
STR	81	192	7
SI_	81	192	7	96	48	2
BRK	81	288	3
BRK	81	288	7
XTP	82	0	3
XTP	82	0	7
TAP	82	48	3
TAP	82	48	7
XTP	82	96	2
XTP	82	96	6
TAP	82	144	2
TAP	82	144	6
XTP	82	192	1
XTP	82	192	5
TAP	82	240	1
TAP	82	240	5
XTP	82	288	0
XTP	82	288	4
TAP	82	336	0
TAP	82	336	4
XTP	83	0	0
XTP	83	24	7
XTP	83	48	0
XTP	83	72	7
XTP	83	96	0
XTP	83	120	7
XTP	83	144	0
XTP	83	168	7
XST	83	192	0
SF_	83	192	0	96	48	4
BRK	83	288	0
XTP	84	0	6
XTP	84	0	7
TAP	84	48	0
TAP	84	96	2
TAP	84	120	3
TAP	84	144	2
TAP	84	192	4
TAP	84	192	5
TAP	84	240	3
TAP	84	288	1
TAP	84	312	0
TAP	84	336	1
TAP	85	0	2
TAP	85	0	3
TAP	85	48	1
TAP	85	96	6
TAP	85	120	7
TAP	85	144	6
TTP	85	192	0	B	0	M1
TTP	85	192	1	E	0	M1
TTP	85	240	4	B	0	M1
TTP	85	240	5	E	0	M1
TTP	85	288	2	B	0	M1
TTP	85	288	3	E	0	M1
TTP	85	336	6	B	0	M1
TTP	85	336	7	E	0	M1
XTP	86	0	0
XTP	86	0	1
TAP	86	48	7
TAP	86	96	5
TAP	86	120	4
TAP	86	144	5
TAP	86	192	2
TAP	86	192	3
TAP	86	240	4
TAP	86	288	6
TAP	86	312	7
TAP	86	336	6
TAP	87	0	4
TAP	87	0	5
TAP	87	48	6
TAP	87	96	1
TAP	87	120	0
TAP	87	144	1
TTP	87	192	7	B	0	M1
TTP	87	192	7	E	0	M1
TTP	87	240	3	B	0	M1
TTP	87	240	3	E	0	M1
TTP	87	288	5	E	0	M1
TTP	87	288	5	B	0	M1
TTP	87	336	1	B	0	M1
TTP	87	336	1	E	0	M1
XTP	88	0	6
XTP	88	0	7
TAP	88	48	0
TAP	88	96	2
TAP	88	120	3
TAP	88	144	2
TAP	88	192	4
TAP	88	192	5
TAP	88	240	3
TAP	88	288	1
TAP	88	312	0
TAP	88	336	1
TAP	89	0	2
TAP	89	0	3
TAP	89	48	1
TAP	89	96	6
TAP	89	120	7
TAP	89	144	6
TTP	89	192	0	B	0	M1
TTP	89	192	0	E	0	M1
TTP	89	240	6	B	0	M1
TTP	89	240	6	E	0	M1
TTP	89	288	2	E	0	M1
TTP	89	288	2	B	0	M1
TTP	89	336	4	B	0	M1
TTP	89	336	4	E	0	M1
XST	90	0	0
SUL	90	0	0	96	48	4
XST	90	0	7
SCL	90	0	7	96	48	5
XTP	90	96	0
XTP	90	96	7
XST	90	192	0
SCR	90	192	0	96	48	2
XST	90	192	7
SUR	90	192	7	96	48	3
XTP	90	288	0
XTP	90	288	7
XTP	91	0	1
XTP	91	0	4
TAP	91	48	6
TAP	91	72	7
TAP	91	96	6
XTP	91	144	0
XTP	91	144	5
XST	91	192	1
SI_	91	192	1	96	48	4
XST	91	192	6
SI_	91	192	6	96	48	3
BRK	91	288	1
BRK	91	288	6
XTP	92	0	0
XTP	92	0	1
TAP	92	48	7
TAP	92	96	5
TAP	92	120	4
TAP	92	144	5
TAP	92	192	2
TAP	92	192	3
TAP	92	240	4
TAP	92	288	6
TAP	92	312	7
TAP	92	336	6
TAP	93	0	4
TAP	93	0	5
TAP	93	48	6
TAP	93	96	1
TAP	93	120	0
TAP	93	144	1
TTP	93	192	0	E	0	M1
TTP	93	192	7	B	0	M1
TTP	93	240	1	B	0	M1
TTP	93	240	2	E	0	M1
TTP	93	288	5	B	0	M1
TTP	93	288	6	E	0	M1
TTP	93	336	3	B	0	M1
TTP	93	336	4	E	0	M1
XTP	94	0	6
XTP	94	0	7
TAP	94	48	0
TAP	94	96	2
TAP	94	120	3
TAP	94	144	2
TAP	94	192	4
TAP	94	192	5
TAP	94	240	3
TAP	94	288	1
TAP	94	312	0
TAP	94	336	1
TAP	95	0	2
TAP	95	0	3
TAP	95	48	1
TAP	95	96	6
TAP	95	120	7
TAP	95	144	6
TTP	95	192	1	B	0	M1
TTP	95	192	1	E	0	M1
TTP	95	240	5	B	0	M1
TTP	95	240	5	E	0	M1
TTP	95	288	3	E	0	M1
TTP	95	288	4	E	0	M1
TTP	95	336	0	E	0	M1
TTP	95	336	7	E	0	M1
XHO	96	0	1	96
XHO	96	0	5	96
TAP	96	144	2
TAP	96	168	3
TAP	96	192	2
TAP	96	240	1
TAP	96	240	4
TAP	96	288	0
TAP	96	288	5
TAP	96	336	6
TAP	96	336	7
TAP	97	48	0
TAP	97	48	1
TAP	97	96	3
TAP	97	96	6
TAP	97	144	5
TAP	97	168	4
TAP	97	192	6
TAP	97	216	3
TAP	97	240	7
TAP	97	264	2
XTP	97	288	0
XTP	97	288	1
XTP	98	0	3
XTP	98	0	4
TTP	98	96	0	B	0	M1
TTP	98	96	0	C	1	M1
TTP	98	96	1	B	0	M1
TTP	98	96	6	B	0	M1
TTP	98	96	7	B	0	M1
XTP	98	192	0
XTP	98	192	7
TTP	98	288	0	C	1	M1
TTP	98	288	2	B	0	M1
TTP	98	288	3	B	0	M1
TTP	98	288	4	B	0	M1
TTP	98	288	5	B	0	M1
XST	99	0	0
SI_	99	0	0	96	48	3
SCR	99	0	0	96	48	3
XST	99	96	0
SI_	99	96	0	96	48	5
SCL	99	96	0	96	48	5
XST	99	192	0
SF_	99	192	0	96	48	4
XTP	99	288	0
TAP	100	0	7
TAP	100	24	0
TAP	100	48	7
TAP	100	72	0
TAP	100	96	7
TAP	100	120	0
TAP	100	144	7
TAP	100	168	0
STR	100	192	7
SF_	100	192	7	96	48	3
TAP	101	0	0
STR	101	0	1
SF_	101	0	1	96	48	5
TAP	101	192	0
STR	101	192	7
SF_	101	192	7	96	48	3
TTP	101	288	0	C	1	M1
XST	102	0	2
SXL	102	0	2	96	1440	7
XST	102	0	6
SXL	102	0	6	96	1440	3

T_REC_TAP	419
T_REC_BRK	30
T_REC_XTP	104
T_REC_HLD	24
T_REC_XHO	3
T_REC_STR	29
T_REC_BST	0
T_REC_XST	19
T_REC_TTP	127
T_REC_THO	6
T_REC_SLD	50
T_REC_ALL	811
T_NUM_TAP	698
T_NUM_BRK	30
T_NUM_HLD	33
T_NUM_SLD	50
T_NUM_ALL	811
T_JUDGE_TAP	728
T_JUDGE_HLD	114
T_JUDGE_SLD	50
T_JUDGE_ALL	892
TTM_EACHPAIRS	124
TTM_SCR_TAP	349000
TTM_SCR_BRK	78000
TTM_SCR_HLD	33000
TTM_SCR_SLD	75000
TTM_SCR_ALL	535000
TTM_SCR_S	516050
TTM_SCR_SS	532000
TTM_RAT_ACV	10056

