VERSION	0.00.00	1.03.00
FES_MODE	0
BPM_DEF	180.000	180.000	180.000	180.000
MET_DEF	4	4
RESOLUTION	384
CLK_DEF	384
COMPATIBLE_CODE	MA2

BPM	0	0	180.000
MET	0	0	4	4

TAP	2	0	0
TAP	2	96	0
TAP	2	192	1
TAP	2	288	1
TAP	3	0	2
TAP	3	96	2
TAP	3	192	3
TAP	3	288	3
TAP	3	288	5
TAP	4	0	7
TAP	4	96	7
TAP	4	192	6
TAP	4	288	6
TAP	5	0	5
TAP	5	96	5
TAP	5	192	4
TAP	5	288	2
TAP	5	288	4
TAP	6	0	0
TAP	6	96	0
TAP	6	192	1
TAP	6	288	1
TAP	7	0	2
TAP	7	96	2
TAP	7	192	3
TAP	7	192	4
TAP	7	288	2
TAP	7	288	5
TAP	8	0	7
TAP	8	96	7
TAP	8	192	6
TAP	8	288	6
XTP	9	0	4
XTP	9	0	5
TAP	9	192	4
TAP	9	192	5
BRK	9	288	3
BRK	9	288	6
TAP	10	0	2
TAP	10	48	3
TAP	10	96	2
TAP	10	192	1
TAP	10	288	1
TAP	11	0	0
TAP	11	48	7
TAP	11	96	0
HLD	11	192	6	96
TAP	11	288	7
TAP	12	0	5
TAP	12	48	4
TAP	12	96	5
TAP	12	192	6
TAP	12	288	6
TAP	13	0	7
TAP	13	48	0
TAP	13	96	7
HLD	13	192	1	96
TAP	13	288	0
TAP	14	0	2
TAP	14	48	3
TAP	14	96	2
TAP	14	144	3
TAP	14	192	2
XTP	14	288	1
XTP	14	288	4
TAP	15	0	5
TAP	15	48	4
TAP	15	96	5
TAP	15	144	4
TAP	15	192	5
XTP	15	288	3
XTP	15	288	6
TAP	16	0	2
TAP	16	48	3
XTP	16	96	1
TAP	16	192	5
TAP	16	240	4
XTP	16	288	6
TAP	17	0	3
TAP	17	0	4
TAP	17	96	2
TAP	17	96	5
TAP	17	192	1
TAP	17	192	6
BRK	17	288	0
BRK	17	288	7
TAP	18	0	1
TAP	18	48	0
TAP	18	96	1
TAP	18	192	6
TAP	18	240	7
TAP	18	288	6
TAP	19	0	5
TAP	19	48	4
TAP	19	96	5
XTP	19	192	6
XTP	19	192	7
XTP	19	288	0
XTP	19	288	5
TAP	20	0	6
TAP	20	48	7
TAP	20	96	6
TAP	20	192	1
TAP	20	240	0
TAP	20	288	1
TAP	21	0	2
TAP	21	48	3
TAP	21	96	2
XTP	21	192	0
XTP	21	192	1
XTP	21	288	2
XTP	21	288	7
TAP	22	0	0
TAP	22	48	7
TAP	22	96	0
TAP	22	192	4
TAP	22	240	3
TAP	22	288	4
TAP	23	0	0
TAP	23	48	7
TAP	23	96	0
XTP	23	192	0
XTP	23	192	7
XTP	23	288	1
XTP	23	288	6
HLD	24	0	3	96
HLD	24	0	4	96
HLD	24	192	2	96
HLD	24	192	5	96
STR	25	0	3
SI_	25	0	3	96	96	0
STR	25	0	4
SI_	25	0	4	96	96	7
BRK	25	288	1
BRK	25	288	6
STR	26	0	1
SI_	26	0	1	96	96	4
STR	26	192	5
SI_	26	192	5	96	96	0
TAP	27	0	2
TAP	27	48	2
TAP	27	96	3
TAP	27	144	3
TAP	27	192	4
BRK	27	288	3
BRK	27	288	5
STR	28	0	6
SI_	28	0	6	96	96	3
STR	28	192	2
SI_	28	192	2	96	96	7
TAP	29	0	5
TAP	29	48	5
TAP	29	96	4
TAP	29	144	4
TAP	29	192	3
BRK	29	288	2
BRK	29	288	4
STR	30	0	2
SCL	30	0	2	96	96	7
STR	30	192	6
SCL	30	192	6	96	96	3
TAP	31	0	1
TAP	31	48	1
TAP	31	96	0
TAP	31	144	0
TAP	31	192	7
BRK	31	288	0
BRK	31	288	6
TAP	32	0	4
TAP	32	0	5
BRK	32	96	0
TAP	32	192	2
TAP	32	192	3
BRK	32	288	7
XHO	33	0	3	72
XHO	33	72	4	72
XHO	33	144	2	72
XHO	33	216	5	72
XTP	33	288	3
TTP	34	0	0	C	1	M1
TTP	34	0	1	B	0	M1
TTP	34	0	6	B	0	M1
TTP	36	0	0	C	1	M1
TTP	36	0	2	B	0	M1
TTP	36	0	6	B	0	M1
TTP	38	0	0	B	0	M1
TTP	38	0	0	C	1	M1
TTP	38	0	1	B	0	M1
TTP	38	0	4	B	0	M1
TTP	38	0	5	B	0	M1
TTP	39	0	0	C	1	M1
TTP	39	0	2	B	0	M1
TTP	39	0	3	B	0	M1
TTP	39	0	6	B	0	M1
TTP	39	0	7	B	0	M1
TTP	40	0	0	B	0	M1
TTP	40	0	1	E	0	M1
TTP	40	0	7	B	0	M1
TTP	40	0	7	E	0	M1
TTP	40	192	3	E	0	M1
TTP	40	192	3	B	0	M1
TTP	40	192	4	B	0	M1
TTP	40	192	5	E	0	M1
THO	41	0	0	192	C	1	M1
TAP	42	0	7
TAP	42	48	7
TAP	42	96	1
TAP	42	144	7
TAP	42	192	0
TAP	42	240	0
TAP	42	288	6
TAP	42	336	0
TAP	43	0	7
TAP	43	48	1
TAP	43	96	6
TAP	43	144	0
STR	43	192	7
SI_	43	192	7	96	48	3
TAP	44	0	0
TAP	44	48	0
TAP	44	96	6
TAP	44	144	0
TAP	44	192	7
TAP	44	240	7
TAP	44	288	1
TAP	44	336	7
TAP	45	0	0
TAP	45	48	6
TAP	45	96	1
TAP	45	144	7
STR	45	192	0
SI_	45	192	0	96	48	4
TAP	46	0	7
TAP	46	48	6
TAP	46	96	1
TAP	46	144	2
TAP	46	192	6
TAP	46	240	5
BRK	46	288	3
BRK	46	288	4
TAP	47	0	3
TAP	47	48	2
TAP	47	96	5
TAP	47	144	6
TAP	47	192	2
TAP	47	240	1
BRK	47	288	0
BRK	47	288	7
XHO	48	0	0	96
XHO	48	0	7	96
XHO	48	192	2	96
XHO	48	192	5	96
TTP	49	0	4	B	0	M1
TTP	49	0	4	E	0	M1
TTP	49	96	2	B	0	M1
TTP	49	96	3	E	0	M1
TTP	49	192	5	B	0	M1
TTP	49	192	6	B	0	M1
TTP	49	288	0	B	0	M1
TTP	49	288	0	C	1	M1
TTP	49	288	1	B	0	M1
HLD	50	0	6	384
TAP	50	192	4
HLD	51	0	1	384
TAP	51	192	3
HLD	52	0	5	384
TAP	52	192	4
HLD	53	0	2	384
TAP	53	192	3
HLD	54	0	6	384
TTP	54	192	4	B	0	M1
HLD	55	0	1	384
TTP	55	192	3	B	0	M1
HLD	56	0	5	384
TTP	56	192	4	E	0	M1
TTP	56	192	4	B	0	M1
HLD	57	0	2	384
TTP	57	192	3	B	0	M1
TTP	57	192	4	E	0	M1
HLD	58	0	6	96
HLD	58	96	0	96
HLD	58	192	7	144
TAP	58	288	1
TAP	58	336	1
TTP	59	96	7	B	0	M1
TTP	59	192	0	C	0	M1
TTP	59	288	3	B	0	M1
HLD	60	0	1	96
HLD	60	96	7	96
HLD	60	192	0	144
TAP	60	288	6
TAP	60	336	6
TTP	61	96	0	B	0	M1
TTP	61	192	0	C	0	M1
TTP	61	288	4	B	0	M1
TAP	62	0	6
TAP	62	96	5
TAP	62	192	4
TAP	62	288	2
TAP	62	288	3
TAP	63	0	1
TAP	63	96	2
TAP	63	192	3
TAP	63	288	4
TAP	63	288	5
TAP	64	0	6
TAP	64	0	7
TAP	64	96	0
TAP	64	96	5
TAP	64	192	1
TAP	64	192	4
TAP	64	288	2
TAP	64	288	3
HLD	65	0	2	192
TAP	65	0	3
TTP	65	192	0	C	1	M1
TAP	66	0	3
TAP	66	96	2
TAP	66	96	4
TAP	66	192	4
TAP	66	288	3
TAP	66	288	5
TAP	67	0	2
TAP	67	0	3
TAP	67	96	1
TAP	67	96	4
TAP	67	192	0
TAP	67	192	5
TAP	67	288	6
TAP	67	288	7
TAP	68	0	1
TAP	68	96	0
TAP	68	96	2
TAP	68	192	6
TAP	68	288	5
TAP	68	288	7
TAP	69	0	0
TAP	69	0	1
TAP	69	96	2
TAP	69	96	7
TAP	69	192	3
TAP	69	192	6
TAP	69	288	4
TAP	69	288	5
STR	70	0	3
SUL	70	0	3	96	144	7
STR	70	0	6
SCL	70	0	6	96	144	3
STR	71	0	1
SCR	71	0	1	96	144	4
STR	71	0	4
SUR	71	0	4	96	144	0
STR	72	0	1
SCR	72	0	1	96	288	7
STR	72	0	6
SCL	72	0	6	96	288	0
TAP	73	192	0
TAP	73	192	7
XTP	73	288	1
XTP	73	288	6
TAP	74	0	1
TAP	74	96	0
TAP	74	96	1
TAP	74	192	6
TAP	74	288	6
TAP	74	288	7
TAP	75	0	5
TAP	75	48	3
TAP	75	96	4
TAP	75	144	2
TAP	75	192	3
TAP	75	288	1
TAP	75	288	4
TAP	76	0	0
TAP	76	0	1
TAP	76	96	3
TAP	76	96	4
TAP	76	192	6
TAP	76	192	7
TAP	76	288	3
HLD	76	288	4	96
TTP	77	0	0	B	0	M1
TTP	77	0	1	B	0	M1
TTP	77	96	5	B	0	M1
TTP	77	96	6	B	0	M1
TTP	77	192	2	B	0	M1
TTP	77	192	3	B	0	M1
TAP	78	0	6
TAP	78	96	6
TAP	78	96	7
TAP	78	192	1
TAP	78	288	0
TAP	78	288	1
TAP	79	0	2
TAP	79	48	4
TAP	79	96	3
TAP	79	144	5
TAP	79	192	4
TAP	79	288	3
TAP	79	288	6
HLD	80	0	5	96
TAP	80	96	1
HLD	80	192	1	96
STR	80	288	7
SUL	80	288	7	96	240	4
THO	82	0	0	384	C	1	M1
TAP	83	192	0
TAP	83	192	7
BRK	83	288	1
BRK	83	288	6
TAP	84	0	1
TAP	84	48	1
TAP	84	96	0
TAP	84	120	7
TAP	84	144	0
TAP	84	192	6
TAP	84	240	6
TAP	84	288	7
TAP	84	312	0
TAP	84	336	7
TAP	85	0	1
TAP	85	48	2
TAP	85	96	3
TAP	85	144	4
HLD	85	192	5	96
TAP	85	288	0
TAP	86	0	6
TAP	86	48	6
TAP	86	96	7
TAP	86	120	0
TAP	86	144	7
TAP	86	192	1
TAP	86	240	1
TAP	86	288	0
TAP	86	312	7
TAP	86	336	0
TAP	87	0	6
TAP	87	48	5
TAP	87	96	4
TAP	87	144	3
HLD	87	192	2	96
TAP	87	288	7
TAP	88	0	2
TAP	88	48	2
TAP	88	96	3
TAP	88	120	4
TAP	88	144	3
TAP	88	192	5
TAP	88	240	5
TAP	88	288	4
TAP	88	312	3
TAP	88	336	4
TAP	89	0	1
TAP	89	48	2
TAP	89	96	3
TAP	89	144	4
HLD	89	192	5	96
TAP	89	288	0
HLD	90	0	3	96
HLD	90	0	4	96
HLD	90	192	1	96
HLD	90	192	6	96
TAP	91	0	0
TAP	91	24	7
TAP	91	48	0
TAP	91	72	7
TAP	91	96	1
TAP	91	120	6
TAP	91	144	1
TAP	91	168	6
XHO	91	192	2	96
TTP	91	288	0	C	1	M1
TAP	92	0	1
TAP	92	48	1
TAP	92	96	2
TAP	92	120	3
TAP	92	144	2
TAP	92	192	6
TAP	92	240	6
TAP	92	288	5
TAP	92	312	4
TAP	92	336	5
STR	93	0	1
SI_	93	0	1	96	48	4
STR	93	96	0
SI_	93	96	0	96	48	5
HLD	93	192	1	96
XTP	93	288	7
TAP	94	0	6
TAP	94	48	6
TAP	94	96	5
TAP	94	120	4
TAP	94	144	5
TAP	94	192	1
TAP	94	240	1
TAP	94	288	2
TAP	94	312	3
TAP	94	336	2
STR	95	0	6
SI_	95	0	6	96	48	3
STR	95	96	7
SI_	95	96	7	96	48	2
HLD	95	192	6	96
XTP	95	288	0
STR	96	0	2
SCL	96	0	2	96	96	7
STR	96	192	6
SCL	96	192	6	96	96	3
TAP	97	0	1
TAP	97	48	1
TAP	97	96	2
TAP	97	144	2
TAP	97	192	3
TAP	97	192	4
XTP	97	288	2
XTP	97	288	5
STR	98	0	6
SI_	98	0	6	96	48	3
STR	98	192	0
SI_	98	192	0	96	48	4
BRK	99	0	6
BRK	99	0	7
BRK	99	96	0
BRK	99	96	1
BRK	99	192	2
BRK	99	192	3
BRK	99	288	4
BRK	99	288	5
XTP	100	0	3
XTP	100	24	4
XTP	100	48	3
XTP	100	72	4
XTP	100	96	2
XTP	100	120	5
XTP	100	144	2
XTP	100	168	5
XHO	100	192	3	96
BRK	100	288	7
BRK	101	0	4
XHO	101	0	5	96
BRK	101	96	0
XHO	101	192	2	96
BRK	101	192	3
BRK	101	288	7
BST	102	0	4
SUR	102	0	4	96	1056	3
BST	102	0	5
SCR	102	0	5	96	1056	2

T_REC_TAP	326
T_REC_BRK	33
T_REC_XTP	35
T_REC_HLD	33
T_REC_XHO	12
T_REC_STR	25
T_REC_BST	2
T_REC_XST	0
T_REC_TTP	53
T_REC_THO	2
T_REC_SLD	27
T_REC_ALL	548
T_NUM_TAP	439
T_NUM_BRK	35
T_NUM_HLD	47
T_NUM_SLD	27
T_NUM_ALL	548
T_JUDGE_TAP	474
T_JUDGE_HLD	154
T_JUDGE_SLD	27
T_JUDGE_ALL	655
TTM_EACHPAIRS	79
TTM_SCR_TAP	219500
TTM_SCR_BRK	91000
TTM_SCR_HLD	47000
TTM_SCR_SLD	40500
TTM_SCR_ALL	398000
TTM_SCR_S	382700
TTM_SCR_SS	394500
TTM_RAT_ACV	10088

