VERSION	0.00.00	1.03.00
FES_MODE	0
BPM_DEF	180.000	180.000	180.000	180.000
MET_DEF	4	4
RESOLUTION	384
CLK_DEF	384
COMPATIBLE_CODE	MA2

BPM	0	0	180.000
MET	0	0	4	4

HLD	2	0	2	192
TAP	2	192	3
TAP	3	0	5
TAP	3	96	5
TAP	3	192	4
HLD	4	0	5	192
TAP	4	192	4
TAP	5	0	2
TAP	5	96	2
TAP	5	192	3
HLD	6	0	2	192
TAP	6	192	3
HLD	7	0	5	192
TAP	7	192	4
TAP	8	0	2
TAP	8	96	2
TAP	8	192	3
TAP	8	288	3
HLD	9	0	3	192
HLD	9	0	4	192
HLD	10	0	2	192
TAP	10	192	3
TAP	11	0	5
TAP	11	96	5
TAP	11	192	4
TAP	11	288	4
HLD	12	0	5	192
TAP	12	192	4
TAP	13	0	2
TAP	13	96	2
TAP	13	192	3
TAP	13	288	3
HLD	14	0	2	192
TAP	14	192	3
HLD	15	0	5	192
TAP	15	192	4
TAP	16	0	2
TAP	16	96	2
TAP	16	192	1
TAP	16	288	1
XHO	17	0	0	192
XHO	17	0	7	192
TAP	18	0	6
TAP	18	96	7
TAP	18	192	0
TAP	18	288	1
TAP	19	0	0
TAP	19	96	1
TAP	19	192	0
TAP	19	192	1
TAP	20	0	1
TAP	20	96	0
TAP	20	192	7
TAP	20	288	6
TAP	21	0	7
TAP	21	96	6
TAP	21	192	6
TAP	21	192	7
TAP	22	0	6
TAP	22	96	7
TAP	22	192	0
TAP	22	288	1
TAP	23	0	0
TAP	23	96	1
TAP	23	192	0
TAP	23	192	1
TAP	24	0	7
TAP	24	96	6
TAP	24	192	0
TAP	24	288	1
STR	25	0	0
SI_	25	0	0	96	144	3
STR	25	0	7
SI_	25	0	7	96	144	4
TAP	26	0	2
TAP	26	96	3
TAP	26	192	4
TAP	26	288	5
TAP	27	0	4
TAP	27	96	5
TAP	27	192	4
TAP	27	192	5
TAP	28	0	5
TAP	28	96	4
TAP	28	192	3
TAP	28	288	2
TAP	29	0	3
TAP	29	96	2
TAP	29	192	2
TAP	29	192	3
TAP	30	0	2
TAP	30	96	3
TAP	30	192	4
TAP	30	288	5
TAP	31	0	4
TAP	31	96	5
TAP	31	192	4
TAP	31	192	5
TAP	32	0	6
TAP	32	96	7
TAP	32	192	0
STR	32	288	1
SCR	32	288	1	96	144	4
TTP	34	0	5	B	0	L1
TTP	34	192	0	C	0	L1
TTP	35	0	1	B	0	L1
TTP	36	0	2	B	0	L1
TTP	36	192	0	C	0	L1
TTP	37	0	6	B	0	L1
TTP	38	0	3	B	0	L1
TTP	38	192	4	B	0	L1
TTP	39	0	2	B	0	L1
TTP	39	192	5	B	0	L1
THO	40	0	0	384	C	1	L1
TAP	42	0	6
TAP	42	96	7
TAP	42	192	0
TAP	42	288	1
TAP	43	0	0
TAP	43	96	0
TAP	43	192	1
TAP	43	192	7
TAP	44	0	2
TAP	44	96	3
TAP	44	192	4
TAP	44	288	5
TAP	45	0	4
TAP	45	96	4
TAP	45	192	3
TAP	45	192	5
TAP	46	0	6
TAP	46	96	7
TAP	46	192	0
TAP	46	288	1
TAP	47	0	0
TAP	47	96	0
TAP	47	192	1
TAP	47	192	7
TAP	48	0	7
TAP	48	96	6
TAP	48	192	0
TAP	48	288	1
BST	49	0	0
SCR	49	0	0	96	144	3
BST	49	0	7
SCL	49	0	7	96	144	4
HLD	50	0	5	384
HLD	51	0	4	384
HLD	52	0	3	384
TAP	53	0	2
TAP	53	192	2
TAP	53	192	3
HLD	54	0	2	384
HLD	55	0	3	384
HLD	56	0	4	384
TAP	57	0	5
TAP	57	192	4
TAP	57	192	5
HLD	58	0	5	192
TAP	58	192	4
HLD	59	0	2	192
TAP	59	192	3
HLD	60	0	4	192
TAP	60	192	3
TAP	61	0	3
TAP	61	0	4
XTP	61	192	3
XTP	61	192	4
HLD	62	0	2	192
TAP	62	192	3
HLD	63	0	5	192
TAP	63	192	4
HLD	64	0	3	192
TAP	64	192	4
TAP	65	0	3
TAP	65	0	4
XTP	65	192	2
XTP	65	192	5
TAP	66	0	5
TAP	66	96	5
TAP	66	192	4
STR	67	0	6
SCL	67	0	6	96	144	3
TAP	68	0	2
TAP	68	96	2
TAP	68	192	3
STR	69	0	1
SCR	69	0	1	96	144	4
TAP	70	0	5
TAP	70	96	5
TAP	70	192	4
STR	71	0	6
SCL	71	0	6	96	144	3
TAP	72	0	2
TAP	72	96	2
TAP	72	192	3
STR	73	0	1
SCR	73	0	1	96	144	4
TAP	74	0	5
TAP	74	96	5
TAP	74	192	4
TAP	74	288	4
TAP	75	0	3
TAP	75	96	3
TAP	75	192	2
TAP	75	192	4
TAP	76	0	2
TAP	76	96	2
TAP	76	192	3
TAP	76	288	3
TAP	77	0	4
TAP	77	96	4
TAP	77	192	3
TAP	77	192	5
TAP	78	0	5
TAP	78	96	5
TAP	78	192	4
TAP	78	288	4
TAP	79	0	3
TAP	79	96	3
TAP	79	192	2
TAP	79	192	4
TAP	80	0	2
TAP	80	96	2
TAP	80	192	3
TAP	80	288	3
TAP	81	0	4
TAP	81	96	4
TAP	81	192	3
TAP	81	288	4
STR	82	0	3
SXR	82	0	3	96	528	0
STR	82	0	4
SXL	82	0	4	96	528	7
TAP	84	0	7
TAP	84	96	0
TAP	84	192	1
TAP	84	288	0
TAP	84	288	1
TAP	85	0	2
TAP	85	96	2
TAP	85	192	1
TAP	85	192	3
TAP	86	0	0
TAP	86	96	7
TAP	86	192	6
TAP	86	288	6
TAP	86	288	7
TAP	87	0	5
TAP	87	96	5
TAP	87	192	4
TAP	87	192	6
TAP	88	0	2
TAP	88	96	3
TAP	88	192	4
TAP	88	288	3
TAP	88	288	4
TAP	89	0	5
TAP	89	96	5
TAP	89	192	4
TAP	89	192	6
HLD	90	0	5	96
TAP	90	96	4
HLD	90	192	2	96
TAP	90	288	3
BST	91	0	3
SCL	91	0	3	96	144	0
BST	91	0	4
SCR	91	0	4	96	144	7
TAP	92	0	6
TAP	92	96	6
TAP	92	96	7
TAP	92	192	1
TAP	92	288	0
TAP	92	288	1
TAP	93	0	6
TAP	93	96	6
TAP	93	96	7
TAP	93	192	0
TAP	93	192	5
TAP	94	0	2
TAP	94	96	2
TAP	94	96	3
TAP	94	192	5
TAP	94	288	4
TAP	94	288	5
TAP	95	0	2
TAP	95	96	2
TAP	95	96	3
TAP	95	192	1
TAP	95	192	4
TAP	96	0	0
TAP	96	96	1
TAP	96	192	2
TAP	96	288	3
TAP	97	0	4
TAP	97	96	5
TAP	97	192	6
TAP	97	288	7
HLD	98	0	0	96
TAP	98	96	7
HLD	98	192	6	96
TAP	98	288	7
TAP	99	0	0
TAP	99	0	6
TAP	99	96	1
TAP	99	96	7
TAP	99	192	0
TAP	99	192	6
TAP	99	288	1
TAP	99	288	7
TAP	100	0	2
TAP	100	96	1
TAP	100	192	0
TAP	100	288	7
TAP	101	0	6
TAP	101	96	6
TAP	101	96	7
TAP	101	192	1
TAP	101	288	0
TAP	101	288	1
BRK	102	0	2
BST	102	0	7
SCL	102	0	7	96	1440	0

T_REC_TAP	252
T_REC_BRK	1
T_REC_XTP	4
T_REC_HLD	26
T_REC_XHO	2
T_REC_STR	9
T_REC_BST	5
T_REC_XST	0
T_REC_TTP	10
T_REC_THO	1
T_REC_SLD	14
T_REC_ALL	324
T_NUM_TAP	275
T_NUM_BRK	6
T_NUM_HLD	29
T_NUM_SLD	14
T_NUM_ALL	324
T_JUDGE_TAP	281
T_JUDGE_HLD	136
T_JUDGE_SLD	14
T_JUDGE_ALL	431
TTM_EACHPAIRS	45
TTM_SCR_TAP	137500
TTM_SCR_BRK	15600
TTM_SCR_HLD	29000
TTM_SCR_SLD	21000
TTM_SCR_ALL	203100
TTM_SCR_S	196450
TTM_SCR_SS	202500
TTM_RAT_ACV	10029

