VERSION	0.00.00	1.03.00
FES_MODE	0
BPM_DEF	180.000	180.000	180.000	180.000
MET_DEF	4	4
RESOLUTION	384
CLK_DEF	384
COMPATIBLE_CODE	MA2

BPM	0	0	180.000
MET	0	0	4	4

TAP	6	0	7
TAP	7	0	7
TAP	8	0	0
XTP	9	0	0
TAP	10	0	7
TAP	11	0	6
TAP	12	0	5
XTP	13	0	3
XTP	13	0	4
TAP	14	0	3
TAP	15	0	2
TAP	16	0	1
BRK	17	0	0
BRK	17	0	7
TAP	18	0	1
TAP	18	192	1
TAP	19	0	1
TAP	20	0	2
TAP	20	192	2
TAP	21	0	2
TAP	22	0	3
TAP	22	192	3
TAP	23	0	3
HLD	24	0	3	384
HLD	24	0	4	384
TAP	26	0	5
TAP	26	192	5
TAP	27	0	5
TAP	28	0	6
TAP	28	192	6
TAP	29	0	6
TAP	30	0	7
TAP	30	192	7
TAP	31	0	7
STR	32	0	0
SI_	32	0	0	96	288	3
STR	32	0	7
SI_	32	0	7	96	288	4
TTP	34	0	3	B	0	L1
TTP	34	0	4	B	0	L1
TTP	36	0	2	B	0	L1
TTP	36	0	5	B	0	L1
TTP	38	0	2	E	0	L1
TTP	38	0	6	E	0	L1
THO	40	0	0	384	C	1	L1
TAP	42	0	7
TAP	42	192	7
TAP	43	0	7
TAP	43	192	7
TAP	44	0	6
TAP	44	192	6
TAP	45	0	6
TAP	45	192	6
TAP	46	0	5
TAP	46	192	5
TAP	47	0	4
TAP	47	192	4
TAP	48	0	3
TAP	48	192	3
XTP	49	0	3
XTP	49	0	4
TTP	50	0	3	B	0	L1
TTP	51	0	2	B	0	L1
TTP	52	0	1	B	0	L1
TTP	53	0	0	B	0	L1
TTP	54	0	7	B	0	L1
TTP	55	0	6	B	0	L1
TTP	56	0	5	B	0	L1
TTP	57	0	3	B	0	L1
TTP	57	0	4	B	0	L1
TTP	58	0	5	E	0	L1
TTP	59	0	6	E	0	L1
TTP	60	0	7	E	0	L1
TTP	61	0	0	E	0	L1
TTP	62	0	1	E	0	L1
TTP	63	0	2	E	0	L1
TTP	64	0	3	E	0	L1
TTP	65	0	0	C	1	L1
TAP	66	0	0
TAP	66	192	0
TAP	67	0	0
TAP	68	0	1
TAP	68	192	1
TAP	69	0	1
TAP	70	0	2
TAP	70	192	2
TAP	71	0	2
HLD	72	0	3	384
TAP	74	0	4
TAP	74	192	4
TAP	75	0	5
TAP	75	192	5
TAP	76	0	6
TAP	76	192	6
TAP	77	0	0
TAP	77	0	7
XTP	77	192	0
XTP	77	192	7
TAP	78	0	0
TAP	78	192	0
TAP	79	0	7
TAP	79	192	7
STR	80	0	0
SI_	80	0	0	96	288	4
STR	82	0	7
SI_	82	0	7	96	288	3
TAP	84	0	2
TAP	84	192	2
TAP	85	0	3
TAP	85	96	3
TAP	85	192	3
TAP	86	0	4
TAP	86	192	4
TAP	87	0	5
TAP	87	96	5
TAP	87	192	5
TAP	88	0	6
TAP	88	192	6
TAP	89	0	7
TAP	89	96	7
TAP	89	192	7
HLD	90	0	0	384
TAP	92	0	1
TAP	92	96	1
TAP	92	192	1
TAP	93	0	2
TAP	93	96	2
TAP	93	192	2
TAP	94	0	3
TAP	94	96	3
TAP	94	192	3
TAP	95	0	4
TAP	95	96	4
TAP	95	192	4
TAP	96	0	4
TAP	96	0	5
TAP	96	192	4
TAP	96	192	5
TAP	97	0	2
TAP	97	0	3
TAP	97	192	2
TAP	97	192	3
TAP	98	0	4
TAP	98	96	4
TAP	98	192	4
TAP	99	0	3
TAP	99	96	3
TAP	99	192	3
XTP	100	0	4
XTP	100	0	5
XTP	100	96	4
XTP	100	96	5
BRK	100	192	4
BRK	100	192	5
XTP	101	0	2
XTP	101	0	3
XTP	101	96	2
XTP	101	96	3
BRK	101	192	2
BRK	101	192	3
STR	102	0	3
SI_	102	0	3	96	288	0
STR	102	0	4
SI_	102	0	4	96	288	7

T_REC_TAP	103
T_REC_BRK	6
T_REC_XTP	15
T_REC_HLD	4
T_REC_XHO	0
T_REC_STR	6
T_REC_BST	0
T_REC_XST	0
T_REC_TTP	23
T_REC_THO	1
T_REC_SLD	6
T_REC_ALL	164
T_NUM_TAP	147
T_NUM_BRK	6
T_NUM_HLD	5
T_NUM_SLD	6
T_NUM_ALL	164
T_JUDGE_TAP	153
T_JUDGE_HLD	40
T_JUDGE_SLD	6
T_JUDGE_ALL	199
TTM_EACHPAIRS	18
TTM_SCR_TAP	73500
TTM_SCR_BRK	15600
TTM_SCR_HLD	5000
TTM_SCR_SLD	9000
TTM_SCR_ALL	103100
TTM_SCR_S	99450
TTM_SCR_SS	102500
TTM_RAT_ACV	10058

