VERSION	0.00.00	1.03.00
FES_MODE	0
BPM_DEF	200.000	200.000	200.000	200.000
MET_DEF	4	4
RESOLUTION	384
CLK_DEF	384
COMPATIBLE_CODE	MA2

BPM	0	0	200.000
MET	0	0	4	4

HLD	1	0	2	1296
HLD	1	0	4	1104
TAP	4	48	5
HLD	4	144	5	1296
TAP	4	240	3
HLD	4	336	3	1104
XTP	7	336	3
XTP	7	336	5
TAP	8	48	0
TAP	8	48	7
TAP	8	96	1
TAP	8	96	6
TAP	8	144	2
TAP	8	144	5
XTP	8	192	3
XTP	8	192	4
XTP	8	240	3
XTP	8	240	4
TAP	9	0	1
TAP	9	0	6
TAP	9	96	3
TAP	9	144	4
TAP	9	192	2
TAP	9	240	7
STR	9	288	0
SI_	9	288	0	96	48	2
STR	10	0	6
SI_	10	0	6	96	48	4
STR	10	96	1
SI_	10	96	1	96	48	4
STR	10	192	7
SI_	10	192	7	96	48	4
TAP	10	288	3
TAP	11	0	2
TAP	11	0	5
TAP	11	96	7
TAP	11	144	0
TAP	11	192	6
TAP	11	240	3
STR	11	288	4
SI_	11	288	4	96	48	6
STR	12	0	2
SI_	12	0	2	96	48	0
STR	12	96	5
SI_	12	96	5	96	48	0
STR	12	192	3
SI_	12	192	3	96	48	0
TAP	12	288	7
TAP	13	0	1
TAP	13	0	6
TAP	13	96	3
TAP	13	144	4
TAP	13	192	2
TAP	13	240	7
STR	13	288	0
SI_	13	288	0	96	48	2
STR	14	0	6
SI_	14	0	6	96	48	4
STR	14	96	1
SI_	14	96	1	96	48	4
STR	14	192	7
SI_	14	192	7	96	48	4
TAP	14	288	3
STR	15	0	6
SI_	15	0	6	96	48	4
TAP	15	96	2
STR	15	192	6
SI_	15	192	6	96	48	3
TAP	15	288	0
TAP	16	0	6
TAP	16	48	7
TAP	16	96	5
TAP	16	144	0
TAP	16	192	4
TAP	16	240	1
TAP	16	288	3
TAP	16	336	2
TAP	17	0	2
TAP	17	0	4
TAP	17	96	7
TAP	17	144	0
TAP	17	192	6
TAP	17	240	3
STR	17	288	4
SI_	17	288	4	96	48	6
STR	18	0	2
SI_	18	0	2	96	48	4
STR	18	96	5
SI_	18	96	5	96	48	0
STR	18	192	3
SI_	18	192	3	96	48	0
TAP	18	288	7
TAP	19	0	1
TAP	19	0	6
TAP	19	96	3
TAP	19	144	4
TAP	19	192	2
TAP	19	240	7
STR	19	288	0
SI_	19	288	0	96	48	2
STR	20	0	6
SI_	20	0	6	96	48	0
STR	20	96	1
SI_	20	96	1	96	48	4
STR	20	192	7
SI_	20	192	7	96	48	4
TAP	20	288	2
TAP	21	0	2
TAP	21	0	5
TAP	21	96	0
TAP	21	144	7
TAP	21	192	1
TAP	21	240	5
STR	21	288	3
SI_	21	288	3	96	48	1
STR	22	0	5
SI_	22	0	5	96	48	3
STR	22	96	2
SI_	22	96	2	96	48	7
STR	22	192	4
SI_	22	192	4	96	48	7
TAP	22	288	1
TAP	23	0	1
TAP	23	48	3
TAP	23	96	2
TAP	23	144	6
TAP	23	192	4
TAP	23	240	5
TAP	23	288	0
TAP	23	336	2
TAP	24	0	1
TAP	24	48	7
TAP	24	96	5
TAP	24	144	6
TAP	24	192	0
TAP	24	192	7
STR	24	240	0
SI_	24	240	0	96	48	3
STR	24	240	7
SI_	24	240	7	96	48	4
TAP	25	96	2
HLD	25	96	5	96
TAP	25	192	4
TAP	25	240	4
TAP	25	288	4
HLD	25	288	6	96
TAP	26	0	3
TAP	26	96	4
HLD	26	96	5	96
TAP	26	192	3
TAP	26	240	3
TAP	26	288	3
HLD	26	288	6	96
TAP	27	0	4
TAP	27	96	2
HLD	27	96	5	96
TAP	27	192	4
TAP	27	288	6
TAP	27	336	4
TAP	27	336	6
TAP	28	48	3
TAP	28	48	4
TAP	28	144	2
TAP	28	144	4
TAP	28	192	2
TAP	28	192	4
TAP	28	288	3
TAP	28	288	5
TAP	28	336	3
TAP	28	336	5
TAP	29	48	3
HLD	29	96	2	96
TAP	29	96	5
TAP	29	192	3
TAP	29	240	3
HLD	29	288	1	96
TAP	29	288	3
TAP	30	0	4
HLD	30	96	2	96
TAP	30	96	3
TAP	30	192	4
TAP	30	240	4
HLD	30	288	1	96
TAP	30	288	4
TAP	31	0	3
HLD	31	96	2	96
TAP	31	96	3
TAP	31	192	4
TAP	31	288	1
TAP	31	336	1
TAP	31	336	3
TAP	32	48	3
TAP	32	48	4
TAP	32	144	4
TAP	32	144	6
TAP	32	240	1
TAP	32	240	7
XTP	32	336	3
XTP	32	336	4
TAP	33	48	3
TAP	33	96	3
HLD	33	96	5	96
TAP	33	192	4
TAP	33	240	4
TAP	33	288	4
HLD	33	288	6	96
TAP	34	0	3
TAP	34	96	1
HLD	34	96	5	96
TAP	34	192	4
TAP	34	240	4
TAP	34	288	4
HLD	34	288	6	96
TAP	35	0	3
TAP	35	96	2
HLD	35	96	5	96
TAP	35	192	3
TAP	35	288	6
TAP	35	336	4
TAP	35	336	6
TAP	36	48	2
TAP	36	48	5
TAP	36	96	2
TAP	36	96	5
XTP	36	192	2
XTP	36	192	4
XTP	36	288	3
XTP	36	288	5
TAP	37	0	3
TAP	37	0	4
TAP	37	96	2
HLD	37	144	2	96
TAP	37	144	4
TAP	37	240	3
HLD	37	336	1	96
TAP	37	336	3
TAP	38	48	2
TAP	38	96	2
TAP	38	192	3
TAP	38	192	4
HLD	38	288	1	96
TAP	38	288	5
TAP	39	0	3
HLD	39	96	2	96
TAP	39	96	3
TAP	39	192	5
TAP	39	288	2
HLD	39	288	4	144
STR	40	0	0
SSL	40	0	0	96	288	4
TAP	40	48	0
XTP	40	144	5
XTP	40	240	6
XHO	40	336	7	240
STR	41	192	4
SCL	41	192	4	96	192	1
STR	42	0	7
SCL	42	0	7	96	192	4
STR	42	192	2
SCL	42	192	2	96	192	7
STR	43	0	4
SXL	43	0	4	96	480	0
XTP	43	288	3
XTP	43	336	2
HLD	44	0	1	192
STR	45	0	0
SCR	45	0	0	96	192	3
STR	45	192	5
SCR	45	192	5	96	192	0
STR	46	0	2
SCR	46	0	2	96	192	5
STR	46	192	6
SUL	46	192	6	96	288	3
HLD	47	0	2	144
STR	47	192	2
SXL	47	192	2	96	192	3
SLL	47	192	2	96	192	3
TAP	48	192	6
TAP	48	288	5
HLD	49	0	3	288
TAP	49	0	4
TAP	49	96	4
TTP	49	192	5	B	0	M1
TTP	49	192	6	B	0	M1
HLD	50	0	3	288
TAP	50	0	4
TAP	50	96	4
TTP	50	192	5	B	0	M1
TTP	50	192	6	B	0	M1
TAP	51	0	3
HLD	51	0	4	288
TAP	51	96	3
TTP	51	192	1	B	0	M1
TTP	51	192	2	B	0	M1
STR	51	288	3
SI_	51	288	3	96	96	0
TAP	52	192	3
TAP	52	192	4
TAP	52	288	1
TAP	52	288	6
HLD	53	0	5	192
TTP	53	96	5	B	0	M1
HLD	53	192	3	192
TTP	53	288	3	B	0	M1
HLD	54	0	4	192
TTP	54	96	4	B	0	M1
HLD	54	192	2	96
TTP	54	288	2	B	0	M1
XTP	55	0	1
XTP	55	0	3
XHO	55	48	1	48
XHO	55	48	3	48
XTP	55	144	4
XTP	55	144	6
XHO	55	192	4	48
XHO	55	192	6	48
XTP	55	288	2
XTP	55	288	5
XHO	55	336	2	48
XHO	55	336	5	48
XTP	56	48	0
XTP	56	48	7
XHO	56	96	0	48
XHO	56	96	7	48
BRK	56	192	1
BRK	56	192	6
TAP	57	0	0
TAP	57	0	5
STR	57	96	6
SI_	57	96	6	96	48	3
STR	57	96	7
SI_	57	96	7	96	48	3
TAP	57	192	6
TAP	57	192	7
TAP	57	288	2
TAP	57	336	1
TAP	57	336	7
STR	58	48	0
SI_	58	48	0	96	48	4
STR	58	48	1
SI_	58	48	1	96	48	4
TAP	58	144	0
TAP	58	144	1
TAP	58	240	6
STR	58	288	6
SCR	58	288	6	96	96	1
STR	59	0	1
SCR	59	0	1	96	96	4
STR	59	96	4
SCR	59	96	4	96	96	7
TAP	59	192	7
TAP	59	288	1
TAP	59	336	0
TAP	59	336	1
TAP	60	48	3
BRK	60	96	2
BRK	60	96	4
TAP	60	192	5
TAP	60	240	4
TAP	60	288	3
TAP	60	336	2
STR	61	0	1
SCR	61	0	1	96	48	4
TAP	61	96	0
STR	61	192	6
SCL	61	192	6	96	48	3
TAP	61	288	7
STR	61	336	7
SCR	61	336	7	96	48	2
TAP	62	48	3
TAP	62	96	4
STR	62	144	5
SCL	62	144	5	96	48	2
TAP	62	240	2
TAP	62	288	1
TAP	62	336	0
STR	63	0	7
SCR	63	0	7	96	96	2
STR	63	96	2
SCR	63	96	2	96	96	5
STR	63	192	5
SI_	63	192	5	96	96	1
TAP	63	288	7
TAP	63	336	7
TAP	64	48	4
BRK	64	96	3
BRK	64	96	5
TAP	64	192	3
TAP	64	192	4
STR	64	288	0
SI_	64	288	0	96	48	3
STR	64	288	7
SI_	64	288	7	96	48	4
TAP	65	0	0
TAP	65	0	7
STR	65	96	0
SI_	65	96	0	96	48	4
STR	65	96	1
SI_	65	96	1	96	48	4
TAP	65	192	0
TAP	65	192	1
TAP	65	288	5
TAP	65	336	0
TAP	65	336	6
STR	66	48	6
SI_	66	48	6	96	48	3
STR	66	48	7
SI_	66	48	7	96	48	3
TAP	66	144	6
TAP	66	144	7
TAP	66	240	1
STR	66	288	1
SCL	66	288	1	96	96	6
STR	67	0	6
SCL	67	0	6	96	96	3
STR	67	96	3
SCL	67	96	3	96	96	0
TAP	67	192	0
TAP	67	288	6
TAP	67	336	3
TAP	67	336	6
TAP	68	48	0
BRK	68	96	1
BRK	68	96	7
TAP	68	192	2
TAP	68	240	3
TAP	68	288	4
TAP	68	336	5
STR	69	0	6
SCL	69	0	6	96	48	3
TAP	69	96	7
STR	69	192	1
SCR	69	192	1	96	48	4
TAP	69	288	0
STR	69	336	0
SI_	69	336	0	96	48	5
TAP	70	48	4
STR	70	96	4
SI_	70	96	4	96	48	0
STR	70	192	6
SI_	70	192	6	96	48	2
STR	70	288	7
SI_	70	288	7	96	48	2
STR	71	0	3
SCR	71	0	3	96	96	6
STR	71	96	6
SCR	71	96	6	96	96	1
STR	71	192	1
SCR	71	192	1	96	96	4
TAP	71	288	4
TAP	72	0	7
STR	72	96	0
SF_	72	96	0	96	48	4
BRK	72	192	0
TAP	73	0	0
STR	73	0	6
SI_	73	0	6	96	48	3
TAP	73	96	0
TAP	73	144	1
STR	73	240	1
SI_	73	240	1	96	48	4
TAP	73	288	0
TAP	73	336	1
TAP	74	48	7
TAP	74	96	6
TAP	74	144	5
TAP	74	192	0
TAP	74	240	4
TAP	74	288	1
TAP	74	336	3
STR	75	0	2
SI_	75	0	2	96	48	7
TAP	75	96	7
TAP	75	144	6
STR	75	240	6
SCL	75	240	6	96	48	3
TAP	75	288	7
TAP	75	336	6
STR	76	48	1
SCL	76	48	1	96	48	6
TAP	76	96	3
TAP	76	144	1
TAP	76	192	4
TAP	76	240	5
BRK	76	288	2
BRK	76	288	6
STR	77	0	1
SI_	77	0	1	96	48	4
TAP	77	0	7
TAP	77	96	7
TAP	77	144	6
STR	77	240	6
SI_	77	240	6	96	48	3
TAP	77	288	7
TAP	77	336	6
TAP	78	48	0
TAP	78	96	1
TAP	78	144	2
TAP	78	192	7
TAP	78	240	3
TAP	78	288	6
TAP	78	336	4
STR	79	0	5
SI_	79	0	5	96	48	0
TAP	79	96	0
TAP	79	144	1
STR	79	240	1
SCR	79	240	1	96	48	4
TAP	79	288	0
TAP	79	336	1
STR	80	48	7
SF_	80	48	7	96	48	3
BRK	80	144	7
TAP	80	240	0
TAP	80	288	0
STR	81	0	1
SCL	81	0	1	96	48	6
TAP	81	0	3
TAP	81	96	4
TAP	81	144	4
STR	81	240	5
SCL	81	240	5	96	48	2
TAP	81	288	6
TAP	81	336	5
TAP	82	48	7
TAP	82	96	0
TAP	82	144	1
TAP	82	192	2
TAP	82	240	3
TAP	82	288	4
TAP	82	336	5
TAP	83	0	4
STR	83	0	6
SCR	83	0	6	96	48	1
TAP	83	96	3
TAP	83	144	3
STR	83	240	2
SCR	83	240	2	96	48	5
TAP	83	288	1
TAP	83	336	2
TAP	84	48	0
TAP	84	96	7
TAP	84	144	6
TAP	84	192	5
TAP	84	240	4
TAP	84	288	3
TAP	84	336	2
TAP	85	0	1
TAP	85	0	7
TAP	85	48	2
TAP	85	96	3
TAP	85	96	4
TAP	85	144	5
TAP	85	192	6
TAP	85	192	7
TAP	85	240	0
TAP	85	288	1
TAP	85	288	7
TAP	85	336	2
XTP	86	0	3
XTP	86	0	4
XTP	86	48	0
XTP	86	48	7
BRK	86	96	1
BRK	86	96	6
STR	86	192	5
SI_	86	192	5	96	48	0
STR	86	240	1
SI_	86	240	1	96	48	4
TAP	86	288	5
TAP	86	336	1
TAP	87	48	7
HLD	87	96	7	96
TAP	87	192	2
TAP	87	240	6
TAP	87	288	1
STR	87	336	1
SI_	87	336	1	96	48	4
STR	87	336	5
SI_	87	336	5	96	48	0
BRK	88	48	1
BRK	88	48	5
TAP	88	144	3
BRK	88	192	2
BRK	88	192	6

T_REC_TAP	305
T_REC_BRK	18
T_REC_XTP	28
T_REC_HLD	34
T_REC_XHO	9
T_REC_STR	90
T_REC_BST	0
T_REC_XST	0
T_REC_TTP	10
T_REC_THO	0
T_REC_SLD	91
T_REC_ALL	585
T_NUM_TAP	433
T_NUM_BRK	18
T_NUM_HLD	43
T_NUM_SLD	91
T_NUM_ALL	585
T_JUDGE_TAP	451
T_JUDGE_HLD	195
T_JUDGE_SLD	91
T_JUDGE_ALL	737
TTM_EACHPAIRS	101
TTM_SCR_TAP	216500
TTM_SCR_BRK	46800
TTM_SCR_HLD	43000
TTM_SCR_SLD	136500
TTM_SCR_ALL	442800
TTM_SCR_S	427800
TTM_SCR_SS	441000
TTM_RAT_ACV	10040

