VERSION	0.00.00	1.03.00
FES_MODE	0
BPM_DEF	200.000	200.000	200.000	200.000
MET_DEF	4	4
RESOLUTION	384
CLK_DEF	384
COMPATIBLE_CODE	MA2

BPM	0	0	200.000
MET	0	0	4	4
CLK	0	0
CLK	0	96
CLK	0	192
CLK	0	288

XHO	1	0	4	720
XHO	1	0	6	1392
TAP	3	336	3
TAP	4	48	3
TAP	4	144	2
TAP	4	240	2
XHO	4	336	1	1152
XHO	4	336	3	768
TAP	7	336	5
TAP	8	48	3
TAP	8	48	4
TAP	8	96	3
TAP	8	96	4
TAP	8	192	2
TAP	8	192	5
TAP	8	240	2
TAP	8	240	5
XTP	9	0	1
XHO	9	0	6	672
TAP	9	96	1
TAP	9	192	4
TAP	9	288	4
TAP	10	0	0
TAP	10	96	0
TAP	10	192	5
TAP	10	288	3
HLD	11	0	1	672
TAP	11	0	6
TAP	11	96	6
TAP	11	192	3
TAP	11	288	3
TAP	12	0	7
TAP	12	96	7
TAP	12	192	2
TAP	12	288	4
TAP	13	0	1
HLD	13	0	6	672
TAP	13	96	1
TAP	13	192	4
TAP	13	288	4
TAP	14	0	0
TAP	14	96	0
TAP	14	192	5
TAP	14	288	3
HLD	15	0	1	288
TAP	15	0	6
TAP	15	96	6
TAP	15	192	3
TAP	15	288	3
TAP	16	0	5
TAP	16	48	4
TAP	16	96	5
TAP	16	192	3
TAP	16	192	4
TAP	16	288	2
TAP	16	288	5
XTP	17	0	1
XHO	17	0	5	672
TAP	17	96	1
TAP	17	192	4
TAP	17	288	4
TAP	18	0	6
TAP	18	96	7
TAP	18	192	0
TAP	18	288	1
HLD	19	0	2	672
TAP	19	0	6
TAP	19	96	6
TAP	19	192	3
TAP	19	288	3
TAP	20	0	1
TAP	20	96	0
TAP	20	192	7
TAP	20	288	6
TAP	21	0	1
HLD	21	0	5	672
TAP	21	96	1
TAP	21	192	4
TAP	21	288	4
TAP	22	0	6
TAP	22	96	7
TAP	22	192	0
TAP	22	288	1
XTP	23	0	1
XTP	23	0	4
XTP	23	144	3
XTP	23	144	6
XTP	23	288	1
XTP	23	288	6
TAP	24	0	2
TAP	24	96	2
TAP	24	192	3
TAP	24	192	4
TAP	24	240	3
TAP	24	240	4
BRK	24	336	0
BRK	24	336	5
TAP	25	96	2
TAP	25	96	5
TAP	25	192	4
TAP	25	240	3
TAP	25	288	4
HLD	26	0	1	96
HLD	26	96	2	96
HLD	26	192	3	96
TAP	26	288	4
TAP	27	0	5
TAP	27	96	4
TAP	27	96	5
TAP	27	192	2
TAP	27	288	2
TAP	27	288	3
TAP	28	0	5
TAP	28	96	4
TAP	28	96	6
TAP	28	192	2
TAP	28	288	1
TAP	28	288	3
TAP	29	0	4
TAP	29	96	2
TAP	29	96	5
TAP	29	192	3
TAP	29	240	4
TAP	29	288	3
HLD	30	0	6	96
HLD	30	96	5	96
HLD	30	192	4	96
TAP	30	288	3
TAP	31	0	2
TAP	31	96	2
TAP	31	96	3
TAP	31	192	5
TAP	31	288	3
TAP	31	288	4
TAP	31	336	3
TAP	31	336	4
TAP	32	48	2
TAP	32	48	5
TAP	32	144	1
TAP	32	144	6
TAP	32	240	0
TAP	32	240	7
BRK	32	336	2
BRK	32	336	7
TAP	33	96	1
TAP	33	96	6
TAP	33	192	4
TAP	33	240	3
TAP	33	288	4
TAP	34	0	1
TAP	34	96	1
TAP	34	96	3
TAP	34	192	6
TAP	34	288	4
TAP	34	288	6
HLD	35	0	1	96
HLD	35	96	2	96
HLD	35	192	3	96
TAP	35	288	4
HLD	36	0	6	96
HLD	36	96	5	96
HLD	36	192	4	96
TAP	36	288	3
TAP	37	0	2
TAP	37	96	1
TAP	37	96	3
TAP	37	192	4
TAP	37	240	3
TAP	37	288	4
TAP	38	0	5
TAP	38	96	4
TAP	38	96	6
TAP	38	192	3
TAP	38	240	4
TAP	38	288	3
HLD	39	0	1	288
TAP	39	96	3
TAP	39	192	4
TAP	39	288	5
TAP	40	0	4
TAP	40	0	5
TAP	40	48	4
TAP	40	48	5
TAP	40	144	3
TAP	40	240	4
XTP	40	336	3
XHO	40	336	7	1200
TTP	41	192	5	E	0	M1
TTP	42	0	3	E	0	M1
TTP	42	192	1	E	0	M1
TTP	43	0	7	E	0	M1
TAP	43	192	0
TAP	43	288	0
STR	44	0	0
SCR	44	0	0	96	96	3
TAP	44	192	7
TAP	44	288	6
HLD	45	0	5	1152
TTP	45	192	3	E	0	M1
TTP	46	0	1	E	0	M1
TTP	46	192	7	E	0	M1
TTP	47	0	5	E	0	M1
TAP	47	192	3
TAP	47	288	3
STR	48	0	3
SCL	48	0	3	96	96	0
TAP	48	192	5
TAP	48	288	6
XHO	49	0	7	1152
TTP	49	192	5	E	0	M1
TTP	50	0	7	E	0	M1
TTP	50	192	1	E	0	M1
TTP	51	0	3	E	0	M1
TAP	51	192	1
TAP	51	288	1
TAP	52	0	1
TAP	52	96	3
TAP	52	96	4
TAP	52	192	2
TAP	52	192	5
TAP	52	288	1
TAP	52	288	6
TAP	53	0	5
TAP	53	48	4
TAP	53	96	5
TAP	53	192	2
TAP	53	240	3
TAP	53	288	2
TAP	54	0	6
TAP	54	48	4
TAP	54	96	6
TAP	54	192	1
TAP	54	240	3
TAP	54	288	1
XTP	55	0	3
XTP	55	0	6
XTP	55	144	1
XTP	55	144	4
XTP	55	288	3
XTP	55	288	7
XTP	56	48	0
XTP	56	48	4
BRK	56	192	2
BRK	56	192	7
XTP	57	0	1
XTP	57	0	4
TAP	57	96	2
TAP	57	96	7
TAP	57	192	1
TAP	57	192	4
TAP	57	288	2
TAP	57	336	2
TAP	58	48	4
TAP	58	48	5
TAP	58	144	2
TAP	58	144	3
TAP	58	240	2
TAP	58	240	5
TAP	58	288	2
TAP	58	288	5
TAP	59	0	1
TAP	59	48	3
TAP	59	96	1
TAP	59	192	3
TAP	59	192	4
TAP	59	288	2
TAP	59	288	5
STR	59	336	2
SI_	59	336	2	96	48	7
TAP	59	336	5
TAP	60	192	2
STR	60	192	5
SI_	60	192	5	96	48	0
HLD	61	0	2	192
TAP	61	96	4
HLD	61	192	5	192
TAP	61	288	3
HLD	62	0	1	192
TAP	62	96	3
HLD	62	192	6	192
TAP	62	288	4
HLD	63	0	0	192
TAP	63	96	2
TAP	63	192	7
TAP	63	288	1
TAP	63	288	6
STR	63	336	1
SI_	63	336	1	96	48	3
STR	63	336	6
SI_	63	336	6	96	48	4
TAP	64	192	0
TAP	64	192	1
TAP	64	288	6
TAP	64	288	7
XTP	65	0	3
XTP	65	0	6
TAP	65	96	0
TAP	65	96	5
TAP	65	192	3
TAP	65	192	6
TAP	65	288	5
TAP	65	336	5
TAP	66	48	2
TAP	66	48	3
TAP	66	144	4
TAP	66	144	5
TAP	66	240	2
TAP	66	240	5
TAP	66	288	2
TAP	66	288	5
TAP	67	0	6
TAP	67	48	4
TAP	67	96	6
TAP	67	192	4
TAP	67	192	5
TAP	67	288	0
TAP	67	288	7
STR	67	336	0
SCR	67	336	0	96	48	3
STR	67	336	7
SCL	67	336	7	96	48	4
TAP	68	192	3
TAP	68	192	4
TAP	68	288	2
TAP	68	288	5
HLD	69	0	6	96
HLD	69	96	5	96
HLD	69	192	4	96
TAP	69	288	3
HLD	69	336	3	336
TAP	70	96	2
TAP	70	192	4
TAP	70	288	5
HLD	71	0	2	96
HLD	71	0	6	96
STR	71	192	3
SCL	71	192	3	96	192	5
XHO	71	192	4	288
TAP	72	192	3
TAP	72	240	4
TAP	72	288	3
TAP	73	0	4
TAP	73	0	5
TAP	73	96	3
TAP	73	96	6
TAP	73	144	3
TAP	73	144	6
TAP	73	240	7
TAP	73	288	0
HLD	73	336	7	336
TTP	74	96	1	E	0	M1
TTP	74	192	7	E	0	M1
TTP	74	288	5	E	0	M1
TAP	75	0	2
TAP	75	0	3
TAP	75	96	1
TAP	75	96	4
TAP	75	144	1
TAP	75	144	4
TAP	75	240	0
TAP	75	288	7
HLD	75	336	0	336
TTP	76	96	7	E	0	M1
TTP	76	192	1	E	0	M1
TTP	76	288	3	E	0	M1
TAP	77	0	4
TAP	77	0	5
TAP	77	96	3
TAP	77	96	6
TAP	77	144	3
TAP	77	144	6
TAP	77	240	7
TAP	77	288	0
HLD	77	336	7	336
TTP	78	96	1	E	0	M1
TTP	78	192	7	E	0	M1
TTP	78	288	5	E	0	M1
TAP	79	0	2
TAP	79	0	3
TAP	79	96	1
TAP	79	96	4
XHO	79	144	1	96
XHO	79	144	4	96
TAP	79	288	0
TAP	79	288	5
XHO	79	336	0	240
XST	79	336	5
SCL	79	336	5	96	144	1
TAP	80	288	1
TAP	80	288	6
XTP	81	0	3
XTP	81	0	5
TAP	81	96	3
TAP	81	96	5
TAP	81	192	2
TAP	81	192	4
TAP	81	288	2
TAP	81	288	4
TAP	82	0	4
TAP	82	0	5
TAP	82	96	6
TAP	82	96	7
TAP	82	192	0
TAP	82	192	1
TAP	82	288	2
TAP	82	288	3
XTP	83	0	2
XTP	83	0	4
TAP	83	96	2
TAP	83	96	4
TAP	83	192	3
TAP	83	192	5
TAP	83	288	3
TAP	83	288	5
TAP	84	0	2
TAP	84	0	3
TAP	84	96	0
TAP	84	96	1
TAP	84	192	6
TAP	84	192	7
TAP	84	288	4
TAP	84	288	5
XTP	85	0	3
XTP	85	0	5
TAP	85	96	3
TAP	85	96	5
TAP	85	192	2
TAP	85	192	4
TAP	85	288	2
TAP	85	288	4
TAP	86	0	4
TAP	86	0	5
TAP	86	96	6
TAP	86	96	7
TAP	86	192	0
TAP	86	192	1
TAP	86	288	2
XHO	86	336	2	240
TAP	87	96	5
TAP	87	192	5
TAP	87	288	3
TAP	87	288	4
TAP	87	336	3
TAP	87	336	4
TAP	88	48	3
TAP	88	48	4
XTP	88	144	0
XTP	88	144	5
BRK	88	192	0
BRK	88	192	5

T_REC_TAP	326
T_REC_BRK	8
T_REC_XTP	29
T_REC_HLD	33
T_REC_XHO	13
T_REC_STR	9
T_REC_BST	0
T_REC_XST	1
T_REC_TTP	21
T_REC_THO	0
T_REC_SLD	10
T_REC_ALL	450
T_NUM_TAP	386
T_NUM_BRK	8
T_NUM_HLD	46
T_NUM_SLD	10
T_NUM_ALL	450
T_JUDGE_TAP	394
T_JUDGE_HLD	355
T_JUDGE_SLD	10
T_JUDGE_ALL	759
TTM_EACHPAIRS	122
TTM_SCR_TAP	193000
TTM_SCR_BRK	20800
TTM_SCR_HLD	46000
TTM_SCR_SLD	15000
TTM_SCR_ALL	274800
TTM_SCR_S	265800
TTM_SCR_SS	274000
TTM_RAT_ACV	10029

