VERSION	0.00.00	1.03.00
FES_MODE	0
BPM_DEF	200.000	200.000	200.000	200.000
MET_DEF	4	4
RESOLUTION	384
CLK_DEF	384
COMPATIBLE_CODE	MA2

BPM	0	0	200.000
MET	0	0	4	4

HLD	1	0	3	384
TAP	2	0	4
TAP	2	192	4
HLD	3	0	4	384
TAP	4	0	3
TAP	4	192	3
TAP	4	192	4
HLD	5	0	4	384
TAP	6	0	3
TAP	6	192	3
HLD	7	0	3	384
TAP	8	0	4
XTP	8	192	2
XTP	8	192	5
TAP	9	0	2
TAP	9	96	2
TAP	9	192	3
TAP	9	288	3
TAP	10	0	4
TAP	10	192	3
TAP	10	192	4
TAP	11	0	5
TAP	11	96	5
TAP	11	192	4
TAP	11	288	4
TAP	12	0	3
TAP	12	192	3
TAP	12	192	4
TAP	13	0	2
TAP	13	96	2
TAP	13	192	3
TAP	13	288	3
TAP	14	0	4
TAP	14	192	3
TAP	14	192	4
TAP	15	0	4
TAP	15	96	4
TAP	15	192	3
TAP	15	192	4
TAP	16	0	3
TAP	16	96	3
TAP	16	192	2
TAP	16	192	5
TAP	17	0	6
TAP	17	96	6
TAP	17	192	5
TAP	17	288	5
TAP	18	0	4
TAP	18	192	3
TAP	18	192	4
TAP	19	0	1
TAP	19	96	1
TAP	19	192	2
TAP	19	288	2
TAP	20	0	3
TAP	20	192	3
TAP	20	192	4
TAP	21	0	6
TAP	21	96	6
TAP	21	192	5
TAP	21	288	5
TAP	22	0	4
TAP	22	192	3
TAP	22	192	4
TAP	23	0	2
TAP	23	96	2
TAP	23	192	1
TAP	23	288	1
TAP	24	0	0
TAP	24	0	7
BRK	24	192	1
BRK	24	192	6
HLD	25	0	5	192
TAP	25	192	4
HLD	26	0	2	192
TAP	26	192	3
HLD	27	0	5	192
TAP	27	192	4
TAP	27	288	4
TAP	28	0	5
TAP	28	96	5
TAP	28	192	4
HLD	29	0	2	192
TAP	29	192	3
HLD	30	0	5	192
TAP	30	192	4
HLD	31	0	2	192
TAP	31	192	3
TAP	31	288	3
TAP	32	0	2
TAP	32	192	2
TAP	32	192	4
TAP	33	0	5
TAP	33	96	5
TAP	33	192	4
TAP	34	0	2
TAP	34	96	2
TAP	34	192	3
TAP	35	0	5
TAP	35	96	5
TAP	35	192	6
TAP	35	288	6
TAP	36	0	7
TAP	36	96	7
TAP	36	192	0
TAP	37	0	1
TAP	37	96	1
TAP	37	192	0
TAP	38	0	6
TAP	38	96	6
TAP	38	192	7
TAP	39	0	1
TAP	39	96	1
STR	39	192	0
SSL	39	192	0	96	336	4
TTP	41	192	3	B	0	L1
TTP	42	0	4	B	0	L1
TTP	42	192	2	B	0	L1
TTP	43	0	0	C	0	L1
TTP	43	192	5	B	0	L1
TTP	44	0	0	C	0	L1
TTP	45	0	4	B	0	L1
TTP	45	192	3	B	0	L1
TTP	46	0	5	B	0	L1
TTP	46	192	2	B	0	L1
THO	47	0	0	384	C	0	L1
STR	49	0	0
SCR	49	0	0	96	336	5
TAP	50	192	6
STR	51	0	7
SCL	51	0	7	96	336	2
TAP	52	192	1
TAP	53	0	2
TAP	53	192	2
TAP	53	192	3
TAP	54	0	5
TAP	54	192	4
TAP	54	192	5
TAP	55	0	6
TAP	55	192	6
TAP	55	192	7
TAP	56	0	0
BRK	56	192	1
BRK	56	192	6
TAP	57	0	7
TAP	57	96	6
TAP	57	192	4
TAP	57	192	5
TAP	58	0	3
TAP	58	96	2
TAP	58	192	0
TAP	58	192	1
TAP	59	0	2
TAP	59	96	3
TAP	59	192	4
TAP	59	288	5
TAP	60	0	4
TAP	60	0	6
HLD	60	192	6	192
TAP	61	0	7
HLD	61	192	1	192
TAP	62	0	0
TAP	62	192	6
TAP	62	288	5
TAP	63	0	4
TAP	63	96	3
TAP	63	192	3
TAP	63	192	4
STR	63	288	3
SI_	63	288	3	96	144	0
STR	63	288	4
SI_	63	288	4	96	144	7
TAP	65	0	0
TAP	65	96	1
TAP	65	192	2
TAP	65	192	3
TAP	66	0	4
TAP	66	96	5
TAP	66	192	6
TAP	66	192	7
TAP	67	0	6
TAP	67	96	7
TAP	67	192	0
TAP	67	288	1
TAP	68	0	0
TAP	68	0	2
TAP	68	192	2
TAP	68	288	2
TAP	69	0	3
TAP	69	96	3
TAP	69	192	4
TAP	69	288	4
TAP	70	0	5
TAP	70	96	5
TAP	70	192	4
STR	70	288	4
SUL	70	288	4	96	240	7
TAP	72	0	0
TAP	72	192	1
TAP	72	192	7
STR	73	0	1
SCR	73	0	1	96	144	4
TAP	74	0	5
TAP	74	96	5
TAP	74	192	4
TAP	74	192	5
STR	75	0	6
SCL	75	0	6	96	144	3
TAP	76	0	2
TAP	76	96	2
TAP	76	192	2
TAP	76	192	3
STR	77	0	1
SCR	77	0	1	96	144	4
TAP	78	0	5
TAP	78	96	6
TAP	78	192	6
TAP	78	192	7
TAP	79	0	5
TAP	79	96	5
TAP	79	192	4
TAP	79	288	4
TAP	80	0	2
TAP	80	0	3
TAP	80	96	2
TAP	80	96	3
TAP	80	192	1
TAP	80	192	4
STR	81	0	6
SI_	81	0	6	96	144	2
TAP	82	0	1
TAP	82	96	1
TAP	82	192	0
TAP	82	192	2
STR	83	0	1
SI_	83	0	1	96	144	5
TAP	84	0	6
TAP	84	96	6
TAP	84	192	5
TAP	84	192	7
STR	85	0	6
SI_	85	0	6	96	144	2
TAP	86	0	1
TAP	86	96	0
TAP	86	96	1
TAP	86	192	2
TAP	86	192	7
TAP	87	0	2
TAP	87	96	1
TAP	87	192	0
TAP	87	288	7
TAP	88	0	0
TAP	88	0	7
TAP	88	96	1
TAP	88	96	6
BRK	88	192	2
BRK	88	192	5

T_REC_TAP	202
T_REC_BRK	6
T_REC_XTP	2
T_REC_HLD	12
T_REC_XHO	0
T_REC_STR	12
T_REC_BST	0
T_REC_XST	0
T_REC_TTP	10
T_REC_THO	1
T_REC_SLD	12
T_REC_ALL	257
T_NUM_TAP	226
T_NUM_BRK	6
T_NUM_HLD	13
T_NUM_SLD	12
T_NUM_ALL	257
T_JUDGE_TAP	232
T_JUDGE_HLD	72
T_JUDGE_SLD	12
T_JUDGE_ALL	316
TTM_EACHPAIRS	39
TTM_SCR_TAP	113000
TTM_SCR_BRK	15600
TTM_SCR_HLD	13000
TTM_SCR_SLD	18000
TTM_SCR_ALL	159600
TTM_SCR_S	154250
TTM_SCR_SS	159000
TTM_RAT_ACV	10037

