VERSION	0.00.00	1.03.00
FES_MODE	0
BPM_DEF	140.000	140.000	140.000	140.000
MET_DEF	4	4
RESOLUTION	384
CLK_DEF	384
COMPATIBLE_CODE	MA2

BPM	0	0	140.000
MET	0	0	4	4

TAP	1	0	3
STR	1	0	4
SCR	1	0	4	96	192	7
TAP	1	96	3
TAP	1	192	3
TAP	1	288	3
STR	2	0	3
SCL	2	0	3	96	192	0
TAP	2	0	4
TAP	2	96	4
TAP	2	192	4
TAP	2	288	4
TAP	3	0	3
STR	3	0	4
SCR	3	0	4	96	192	7
TAP	3	96	3
TAP	3	192	3
TAP	3	288	3
TAP	4	0	3
TAP	4	0	4
TAP	4	96	4
TAP	4	192	3
TAP	4	192	4
TAP	4	288	2
STR	5	0	1
SCL	5	0	1	96	192	6
TAP	5	0	4
TAP	5	96	4
TAP	5	192	4
TAP	5	288	4
TAP	6	0	3
STR	6	0	6
SCR	6	0	6	96	192	1
TAP	6	96	3
TAP	6	192	3
TAP	6	288	3
STR	7	0	1
SCL	7	0	1	96	192	6
TAP	7	0	4
TAP	7	96	4
TAP	7	192	4
TAP	7	288	4
TAP	8	0	3
TAP	8	0	4
TAP	8	96	3
HLD	8	192	3	72
HLD	8	192	4	96
TAP	9	0	0
TAP	9	96	1
TAP	9	192	2
TAP	9	288	3
TAP	9	288	4
TTP	10	0	0	E	0	M1
TTP	10	96	1	E	0	M1
TTP	10	192	2	E	0	M1
TAP	10	288	3
TAP	10	288	4
TAP	11	0	5
TAP	11	48	5
TAP	11	96	4
TAP	11	144	3
TAP	11	192	2
TAP	11	240	2
STR	11	288	3
SUR	11	288	3	96	192	4
TAP	11	336	4
TAP	12	0	4
TAP	12	288	4
TTP	13	0	6	E	0	M1
TTP	13	96	0	C	0	M1
TTP	13	192	2	E	0	M1
TTP	13	288	4	E	0	M1
TTP	14	0	2	E	0	M1
TTP	14	0	6	E	0	M1
TTP	14	96	1	E	0	M1
TTP	14	96	7	E	0	M1
TTP	14	192	0	C	0	M1
TAP	14	288	3
TAP	14	288	4
TAP	15	0	2
TAP	15	48	2
TAP	15	96	3
TAP	15	144	4
TAP	15	192	5
TAP	15	240	5
STR	15	288	4
SUL	15	288	4	96	192	3
TAP	15	336	3
TAP	16	0	3
TAP	16	288	3
TAP	16	288	4
TAP	17	0	3
TAP	17	0	5
XTP	17	96	0
TAP	17	96	5
TAP	17	192	2
TAP	17	192	5
TAP	17	288	3
TAP	17	288	5
STR	18	0	3
SCL	18	0	3	96	96	0
TAP	18	0	5
TAP	18	96	5
TAP	18	192	5
TAP	18	288	5
TTP	19	0	4	E	0	M1
TAP	19	0	5
TTP	19	96	2	E	0	M1
TAP	19	96	5
TAP	19	192	5
TTP	19	192	7	E	0	M1
TAP	19	288	5
TTP	19	288	6	E	0	M1
TTP	20	0	0	E	0	M1
TAP	20	0	5
TTP	20	96	0	C	0	M1
TAP	20	96	5
TTP	20	192	4	E	0	M1
TAP	20	192	5
TAP	20	288	2
TAP	20	288	5
TAP	21	0	2
TAP	21	0	4
TAP	21	96	2
XTP	21	96	7
TAP	21	192	2
TAP	21	192	5
TAP	21	288	2
TAP	21	288	4
TAP	22	0	2
STR	22	0	4
SCR	22	0	4	96	96	7
TAP	22	96	2
TAP	22	192	2
TAP	22	288	2
TAP	23	0	2
TTP	23	0	4	E	0	M1
TAP	23	96	2
TTP	23	96	6	E	0	M1
TTP	23	192	1	E	0	M1
TAP	23	192	2
TAP	23	288	2
TTP	23	288	2	E	0	M1
TTP	24	0	0	E	0	M1
TAP	24	0	2
TTP	24	96	0	C	0	M1
TAP	24	96	2
TAP	24	192	2
TTP	24	192	4	E	0	M1
TAP	24	288	2
TAP	24	288	5
TAP	25	0	3
TAP	25	0	5
TAP	25	48	3
TAP	25	96	3
TAP	25	96	5
TAP	25	192	1
TAP	25	192	5
TAP	25	288	0
TAP	25	288	5
STR	25	336	0
SCR	25	336	0	96	96	3
TAP	26	0	5
TAP	26	96	5
TAP	26	192	5
TAP	26	240	3
TAP	26	288	3
TAP	26	288	5
TAP	27	0	2
TAP	27	0	4
TAP	27	48	4
TAP	27	96	2
TAP	27	96	4
TAP	27	192	2
TAP	27	192	6
TAP	27	288	2
TAP	27	288	7
TAP	28	0	2
STR	28	0	7
SCL	28	0	7	96	96	4
TAP	28	96	2
TAP	28	192	2
STR	28	288	2
SXR	28	288	2	96	192	7
TAP	28	288	4
TAP	29	0	6
TAP	29	96	6
TAP	29	192	6
TAP	29	240	5
TAP	29	288	4
STR	29	288	5
SXL	29	288	5	96	192	0
TAP	30	0	1
TAP	30	96	1
TAP	30	192	1
TAP	30	240	2
TAP	30	288	2
TAP	30	288	3
TAP	31	0	4
TAP	31	0	5
TAP	31	96	1
TAP	31	96	3
TAP	31	192	4
TAP	31	192	6
TAP	31	288	0
TAP	31	288	7
STR	31	336	0
SCR	31	336	0	96	96	3
TAP	31	336	7
STR	32	48	4
SCR	32	48	4	96	240	3
THO	33	0	0	192	C	1	M1
TAP	34	0	0
TAP	34	0	1
TAP	34	48	0
TAP	34	48	1
TAP	34	96	2
TAP	34	96	7
TAP	34	144	3
TAP	34	144	6
STR	34	192	4
SI_	34	192	4	96	48	0
STR	34	192	5
SI_	34	192	5	96	48	1
TAP	35	0	6
TAP	35	0	7
TAP	35	48	0
TAP	35	48	5
STR	35	96	1
SCL	35	96	1	96	48	6
TAP	35	96	4
STR	35	192	5
SUR	35	192	5	96	48	2
TAP	35	288	3
TAP	36	0	2
TAP	36	48	3
TAP	36	96	4
TAP	36	144	5
STR	36	192	6
SCL	36	192	6	96	48	3
STR	36	192	7
SUL	36	192	7	96	48	2
TAP	37	0	2
TAP	37	0	3
TAP	37	48	1
TAP	37	96	3
TAP	37	96	4
TAP	37	144	5
TAP	37	192	4
TAP	37	192	5
TAP	37	288	3
TAP	37	288	6
STR	38	0	1
SI_	38	0	1	96	48	6
TAP	38	0	3
TAP	38	96	4
TAP	38	192	4
STR	38	192	6
SI_	38	192	6	96	48	1
TAP	38	288	3
STR	39	0	1
SI_	39	0	1	96	48	6
TAP	39	48	1
STR	39	96	4
SI_	39	96	4	96	48	7
TAP	39	144	4
STR	39	192	3
SI_	39	192	3	96	48	0
TAP	39	240	3
STR	39	288	7
SCL	39	288	7	96	192	1
TAP	39	336	7
TAP	40	0	0
STR	40	288	0
SCR	40	288	0	96	192	6
THO	41	0	0	192	C	0	M1
TAP	42	0	6
TAP	42	0	7
TAP	42	48	6
TAP	42	48	7
TAP	42	96	0
TAP	42	96	5
TAP	42	144	1
TAP	42	144	4
STR	42	192	2
SCL	42	192	2	96	48	7
STR	42	192	3
SCR	42	192	3	96	48	6
TAP	43	0	0
TAP	43	0	1
TAP	43	48	2
TAP	43	48	7
TAP	43	96	3
STR	43	96	6
SCR	43	96	6	96	48	1
STR	43	192	2
SUL	43	192	2	96	48	5
TAP	43	288	4
TAP	44	0	5
TAP	44	48	4
TAP	44	96	3
TAP	44	144	2
TAP	44	192	2
TAP	44	240	3
TAP	44	288	4
HLD	44	336	5	96
TAP	45	48	4
STR	45	96	4
SCL	45	96	4	96	48	1
STR	45	192	0
SCL	45	192	0	96	48	5
TAP	46	0	4
STR	46	0	6
SI_	46	0	6	96	48	2
TAP	46	96	3
STR	46	192	1
SI_	46	192	1	96	48	5
TAP	46	192	3
TAP	46	288	4
STR	47	0	4
SI_	47	0	4	96	48	0
TAP	47	0	6
TAP	47	96	7
TAP	47	192	1
STR	47	192	3
SI_	47	192	3	96	48	7
TAP	47	288	0
STR	48	0	6
SI_	48	0	6	96	48	1
TAP	48	48	6
STR	48	96	3
SI_	48	96	3	96	48	0
TAP	48	144	3
STR	48	192	4
SI_	48	192	4	96	48	7
TAP	48	240	4
STR	48	288	0
SCR	48	288	0	96	144	7
TAP	48	336	0
BRK	49	0	7
XTP	49	240	1
XTP	49	240	6
XTP	49	288	2
XTP	49	288	5
XTP	49	336	3
XTP	49	336	4
TAP	50	0	3
TAP	50	0	4
TAP	50	48	3
TAP	50	72	4
TAP	50	96	2
TAP	50	120	3
TAP	50	144	1
STR	50	192	0
SI_	50	192	0	96	48	4
STR	50	192	1
SI_	50	192	1	96	48	3
TAP	51	0	3
TAP	51	0	4
TAP	51	48	4
TAP	51	72	3
TAP	51	96	5
TAP	51	120	4
TAP	51	144	6
STR	51	192	3
SI_	51	192	3	96	48	7
STR	51	192	6
SI_	51	192	6	96	48	4
TAP	52	0	4
TAP	52	0	7
TAP	52	48	2
TAP	52	72	3
TAP	52	120	0
TAP	52	144	7
TAP	52	192	1
TAP	52	192	6
TAP	52	240	5
TAP	52	264	4
TAP	52	312	2
TAP	52	336	3
XTP	53	0	1
XTP	53	0	4
XTP	53	72	2
XTP	53	72	5
XTP	53	144	3
XTP	53	144	6
XTP	53	192	3
XTP	53	192	6
XTP	53	264	2
XTP	53	264	5
XTP	53	336	1
XTP	53	336	4
TTP	54	0	0	C	1	M1
TTP	54	0	3	B	0	M1
TTP	54	0	3	E	0	M1
TTP	54	0	4	B	0	M1
TTP	54	0	5	E	0	M1
XTP	54	72	0
XTP	54	72	7
XTP	54	120	0
XTP	54	120	7
TAP	54	192	3
TAP	54	192	4
TAP	54	264	2
TAP	54	264	5
TAP	54	312	2
TAP	54	336	3
TAP	54	360	1
TAP	55	0	3
TAP	55	72	5
TAP	55	120	4
TAP	55	120	6
TAP	55	192	1
TAP	55	192	3
TAP	55	264	0
TAP	55	264	7
TAP	55	336	4
TAP	55	336	6
XHO	56	0	3	72
XTP	56	0	4
HLD	56	72	2	72
TAP	56	144	1
XTP	56	192	0
XHO	56	192	1	72
HLD	56	264	2	72
TAP	56	336	3
XTP	57	0	3
XHO	57	0	4	72
HLD	57	72	5	72
TAP	57	144	6
XHO	57	192	6	72
XTP	57	192	7
HLD	57	264	5	72
TAP	57	336	4
BST	58	0	1
SCR	58	0	1	96	1152	7
BRK	58	0	6
THO	59	0	0	384	C	0	M1
TTP	61	0	0	E	0	M1
STR	61	288	6
SCL	61	288	6	96	1152	0
THO	62	0	0	384	C	0	M1
THO	64	0	0	576	C	0	M1
TAP	66	0	6
TAP	66	0	7
TAP	66	48	6
TAP	66	48	7
TAP	66	96	0
TAP	66	96	5
TAP	66	144	1
TAP	66	144	4
STR	66	192	2
SCL	66	192	2	96	48	7
STR	66	192	3
SCR	66	192	3	96	48	6
TAP	67	0	0
TAP	67	0	1
TAP	67	48	2
TAP	67	48	7
TAP	67	96	3
STR	67	96	6
SCR	67	96	6	96	48	1
STR	67	192	2
SCR	67	192	2	96	48	5
TAP	67	288	7
TAP	68	0	5
TAP	68	48	4
TAP	68	96	3
TAP	68	144	2
STR	68	192	0
SCL	68	192	0	96	48	5
STR	68	192	1
SCR	68	192	1	96	48	4
TAP	69	0	4
TAP	69	0	5
TAP	69	48	6
TAP	69	96	3
TAP	69	96	4
TAP	69	144	2
TAP	69	192	2
TAP	69	192	3
TAP	69	288	1
TAP	69	288	4
TAP	70	0	4
STR	70	0	6
SI_	70	0	6	96	48	1
TAP	70	96	2
STR	70	192	1
SI_	70	192	1	96	48	6
TAP	70	192	3
TAP	70	288	5
STR	71	0	6
SI_	71	0	6	96	48	1
TAP	71	48	6
STR	71	96	3
SI_	71	96	3	96	48	0
TAP	71	144	3
STR	71	192	4
SI_	71	192	4	96	48	7
TAP	71	240	4
STR	71	288	0
SCR	71	288	0	96	192	6
TAP	71	336	0
TAP	72	0	7
STR	72	288	7
SCL	72	288	7	96	192	1
THO	73	0	0	192	C	0	M1
TAP	74	0	0
TAP	74	0	1
TAP	74	48	0
TAP	74	48	1
TAP	74	96	2
TAP	74	96	7
TAP	74	144	3
TAP	74	144	6
STR	74	192	4
SI_	74	192	4	96	48	1
STR	74	192	5
SI_	74	192	5	96	48	0
TAP	75	0	6
TAP	75	0	7
TAP	75	48	0
TAP	75	48	5
TAP	75	96	1
STR	75	96	4
SI_	75	96	4	96	48	7
STR	75	192	0
SI_	75	192	0	96	48	3
TAP	75	288	4
TAP	76	0	2
TAP	76	48	3
TAP	76	96	4
TAP	76	144	5
TAP	76	192	5
TAP	76	240	4
TAP	76	288	3
HLD	76	336	2	96
TAP	77	48	3
STR	77	96	3
SCR	77	96	3	96	48	6
STR	77	192	7
SCR	77	192	7	96	48	2
STR	78	0	2
SI_	78	0	2	96	48	4
STR	78	0	5
SI_	78	0	5	96	48	1
STR	78	192	2
SI_	78	192	2	96	48	6
STR	78	192	5
SI_	78	192	5	96	48	3
TAP	79	0	1
STR	79	0	3
SI_	79	0	3	96	48	7
TAP	79	96	0
STR	79	192	4
SI_	79	192	4	96	48	0
TAP	79	192	6
TAP	79	288	7
STR	80	0	1
SI_	80	0	1	96	48	6
TAP	80	48	1
STR	80	96	4
SI_	80	96	4	96	48	7
TAP	80	144	4
STR	80	192	3
SI_	80	192	3	96	48	0
TAP	80	240	3
STR	80	288	7
SCL	80	288	7	96	144	1
TAP	80	336	7
HLD	81	0	0	288
TAP	81	288	7
THO	82	0	0	384	C	0	M1

T_REC_TAP	335
T_REC_BRK	2
T_REC_XTP	28
T_REC_HLD	9
T_REC_XHO	4
T_REC_STR	77
T_REC_BST	1
T_REC_XST	0
T_REC_TTP	32
T_REC_THO	7
T_REC_SLD	78
T_REC_ALL	573
T_NUM_TAP	472
T_NUM_BRK	3
T_NUM_HLD	20
T_NUM_SLD	78
T_NUM_ALL	573
T_JUDGE_TAP	475
T_JUDGE_HLD	78
T_JUDGE_SLD	78
T_JUDGE_ALL	631
TTM_EACHPAIRS	126
TTM_SCR_TAP	236000
TTM_SCR_BRK	7800
TTM_SCR_HLD	20000
TTM_SCR_SLD	117000
TTM_SCR_ALL	380800
TTM_SCR_S	369100
TTM_SCR_SS	380500
TTM_RAT_ACV	10007

