VERSION	0.00.00	1.03.00
FES_MODE	0
BPM_DEF	140.000	140.000	140.000	140.000
MET_DEF	4	4
RESOLUTION	384
CLK_DEF	384
COMPATIBLE_CODE	MA2

BPM	0	0	140.000

TAP	1	0	1
TAP	1	96	2
TAP	1	192	3
TAP	1	288	4
HLD	1	336	4	336
STR	2	48	1
SCL	2	48	1	96	144	5
TAP	3	0	6
TAP	3	96	5
TAP	3	192	4
TAP	3	288	3
HLD	3	336	3	336
STR	4	48	6
SCR	4	48	6	96	144	2
TAP	5	0	1
TAP	5	96	2
TAP	5	192	3
TAP	5	288	4
HLD	5	336	4	336
STR	6	48	1
SCL	6	48	1	96	144	5
TAP	7	0	4
TAP	7	0	5
TAP	7	96	3
TAP	7	96	4
TAP	7	192	2
TAP	7	192	3
TAP	7	288	2
TAP	7	288	5
TAP	7	336	2
TAP	7	336	5
TAP	8	48	4
TAP	8	96	3
TAP	8	144	4
HLD	8	192	2	72
HLD	8	192	5	72
TAP	9	0	0
TAP	9	96	1
TAP	9	192	2
TAP	9	288	3
TAP	9	288	4
TAP	10	0	0
TAP	10	48	0
TAP	10	96	1
TAP	10	192	2
TAP	10	288	3
TAP	10	288	4
TAP	11	0	6
TAP	11	48	6
TAP	11	96	4
TAP	11	192	1
TAP	11	240	1
TAP	11	288	3
STR	12	0	3
SUR	12	0	3	96	96	0
STR	12	0	4
SCR	12	0	4	96	96	7
TAP	13	0	2
TAP	13	48	2
TAP	13	96	3
TAP	13	192	5
TAP	13	240	5
TAP	13	288	4
TAP	14	0	2
TAP	14	0	3
TAP	14	96	2
TAP	14	96	3
HLD	14	192	1	96
HLD	14	192	4	96
TAP	15	0	3
HLD	15	0	4	288
TAP	15	96	5
TAP	15	192	3
TAP	15	288	5
TAP	16	0	3
TAP	16	48	4
TAP	16	96	3
XHO	16	192	1	96
XHO	16	192	6	96
TAP	17	0	2
BRK	17	96	1
BRK	17	96	3
TAP	17	192	5
TAP	17	288	4
TAP	17	288	6
TAP	17	336	4
TAP	17	336	6
TAP	18	48	5
TAP	18	48	6
TAP	18	144	4
HLD	18	144	7	144
TAP	18	240	1
TAP	18	288	1
TAP	19	0	2
TAP	19	48	2
TAP	19	96	4
TAP	19	192	5
TAP	19	240	5
TAP	19	288	3
TAP	20	0	2
TAP	20	96	3
TAP	20	96	4
HLD	20	144	3	144
HLD	20	144	4	144
TAP	21	0	5
TAP	21	96	4
TAP	21	96	6
TAP	21	192	2
TAP	21	288	1
TAP	21	288	3
TAP	21	336	1
TAP	21	336	3
TAP	22	48	1
TAP	22	48	2
HLD	22	144	0	144
TAP	22	144	3
TAP	22	240	6
TAP	22	288	6
TAP	23	0	6
TAP	23	48	6
TAP	23	96	4
TAP	23	192	1
TAP	23	240	1
TAP	23	288	3
TAP	24	0	5
TAP	24	96	3
TAP	24	96	4
HLD	24	144	3	144
HLD	24	144	4	144
TAP	25	0	1
TAP	25	48	1
TAP	25	96	1
TAP	25	96	3
TAP	25	192	6
TAP	25	240	6
TAP	25	288	4
TAP	25	288	6
STR	26	0	3
SI_	26	0	3	96	48	1
STR	26	0	4
SI_	26	0	4	96	48	6
TAP	26	192	0
TAP	26	240	7
TAP	26	288	0
TAP	27	0	5
TAP	27	48	5
TAP	27	96	4
TAP	27	96	5
TAP	27	192	2
TAP	27	240	2
TAP	27	288	2
TAP	27	288	3
TAP	28	0	4
TAP	28	0	6
TAP	28	96	1
TAP	28	96	3
HLD	28	192	2	96
HLD	28	192	5	96
HLD	29	0	1	72
HLD	29	72	2	72
TAP	29	144	3
TAP	29	240	4
TAP	29	240	5
TAP	29	288	3
TAP	29	288	6
HLD	30	0	6	72
HLD	30	72	5	72
TAP	30	144	4
TAP	30	240	2
TAP	30	240	3
TAP	30	288	1
TAP	30	288	4
TAP	31	0	3
TAP	31	0	4
TAP	31	96	1
TAP	31	96	3
TAP	31	192	4
TAP	31	192	6
TAP	31	288	0
TAP	31	288	7
XTP	31	336	0
XTP	31	336	7
XTP	32	48	3
XTP	32	48	7
BRK	32	144	0
BST	32	144	4
SCR	32	144	4	96	336	3
XTP	33	288	1
XTP	33	288	6
TAP	34	0	1
TAP	34	48	1
HLD	34	96	4	192
TAP	34	192	7
TAP	34	288	3
TAP	35	0	6
TAP	35	48	6
HLD	35	96	3	192
TAP	35	192	0
TAP	35	288	4
TAP	36	0	1
TAP	36	48	3
TAP	36	96	1
TAP	36	192	3
TAP	36	192	4
TAP	36	288	0
TAP	36	288	6
TAP	37	0	6
TAP	37	48	4
TAP	37	96	6
TAP	37	192	3
TAP	37	192	4
TAP	37	288	1
TAP	37	288	7
TAP	38	0	0
TAP	38	48	0
TAP	38	96	0
TAP	38	96	6
TAP	38	192	6
TAP	38	240	6
TAP	38	288	4
TAP	38	288	6
TAP	39	0	4
TAP	39	48	4
TAP	39	96	2
TAP	39	96	4
TAP	39	192	2
TAP	39	240	2
TAP	39	288	0
TAP	39	288	2
STR	40	0	0
SCR	40	0	0	96	192	6
HLD	40	0	7	288
STR	41	0	0
SXL	41	0	0	96	192	4
HLD	41	0	5	288
HLD	42	0	6	384
TTP	42	96	6	E	0	M1
TTP	42	192	0	C	0	M1
TTP	42	288	2	E	0	M1
HLD	43	0	1	384
TTP	43	96	2	E	0	M1
TTP	43	192	0	C	0	M1
TTP	43	288	6	E	0	M1
HLD	44	0	7	384
TTP	44	96	6	E	0	M1
TTP	44	192	0	C	0	M1
TTP	44	288	2	E	0	M1
HLD	45	0	0	384
TTP	45	96	2	E	0	M1
TTP	45	192	0	C	0	M1
TTP	45	288	6	E	0	M1
STR	46	0	7
SCL	46	0	7	96	48	4
TAP	46	192	2
TAP	46	288	1
TAP	46	288	6
STR	47	0	3
SCL	47	0	3	96	48	0
TAP	47	192	5
TAP	47	288	1
TAP	47	288	6
STR	48	0	7
SCL	48	0	7	96	48	4
TAP	48	192	2
TAP	48	288	1
TAP	48	288	6
BST	49	0	0
SCR	49	0	0	96	96	5
HLD	49	0	7	192
TAP	49	288	0
TAP	49	288	6
HLD	50	0	3	288
STR	50	0	7
SI_	50	0	7	96	48	5
TAP	50	192	7
TAP	50	288	5
HLD	51	0	3	288
STR	51	0	7
SI_	51	0	7	96	48	4
TAP	51	192	7
TAP	51	288	4
HLD	52	0	3	288
STR	52	0	7
SI_	52	0	7	96	48	2
TAP	52	192	7
TAP	52	288	2
TTP	53	0	0	B	0	M1
TTP	53	0	1	B	0	M1
TTP	53	96	6	B	0	M1
TTP	53	96	7	B	0	M1
TTP	53	192	4	B	0	M1
TTP	53	192	5	B	0	M1
TTP	53	288	2	B	0	M1
TTP	53	288	3	B	0	M1
THO	54	0	0	96	C	0	M1
TAP	54	192	1
TAP	54	192	6
TAP	54	288	3
TAP	54	288	4
STR	55	0	0
SI_	55	0	0	96	48	3
HLD	55	0	4	288
TAP	55	192	0
TAP	55	288	3
STR	56	0	0
SI_	56	0	0	96	48	5
HLD	56	0	4	288
TAP	56	192	0
TAP	56	288	5
TTP	57	0	6	B	0	M1
TTP	57	0	7	B	0	M1
TTP	57	96	0	B	0	M1
TTP	57	96	1	B	0	M1
TTP	57	192	3	B	0	M1
TTP	57	192	4	B	0	M1
TTP	57	192	4	E	0	M1
XHO	58	0	3	1152
STR	58	0	7
SXR	58	0	7	96	480	4
THO	60	0	0	384	C	0	M1
TAP	61	192	0
TAP	61	288	0
STR	62	0	0
SXL	62	0	0	96	480	3
XHO	62	0	4	1152
THO	64	0	0	384	C	0	M1
STR	65	192	3
SI_	65	192	3	96	48	1
STR	65	192	7
SI_	65	192	7	96	48	5
TAP	66	0	1
TAP	66	48	3
HLD	66	96	1	96
TAP	66	192	0
TAP	66	288	2
TAP	66	288	5
TAP	67	0	6
TAP	67	48	4
HLD	67	96	6	96
TAP	67	192	7
TAP	67	288	2
TAP	67	288	5
TAP	68	0	1
TAP	68	48	0
HLD	68	96	1	96
TAP	68	192	3
TAP	68	288	0
TAP	68	288	6
TAP	69	0	6
TAP	69	48	7
HLD	69	96	6	96
TAP	69	192	4
TAP	69	288	1
TAP	69	288	7
TAP	70	0	7
TAP	70	48	7
TAP	70	96	1
TAP	70	96	7
TAP	70	192	1
TAP	70	240	1
TAP	70	288	1
TAP	70	288	3
TAP	71	0	3
TAP	71	48	3
TAP	71	96	3
TAP	71	96	5
TAP	71	192	5
TAP	71	240	5
TAP	71	288	5
TAP	71	288	7
XHO	72	0	0	288
BST	72	0	7
SCL	72	0	7	96	192	1
HLD	73	0	2	288
STR	73	0	7
SXR	73	0	7	96	192	3
HLD	74	0	6	384
TTP	74	96	0	E	0	M1
TTP	74	192	0	C	0	M1
TTP	74	288	4	E	0	M1
HLD	75	0	1	384
TTP	75	96	4	E	0	M1
TTP	75	192	0	C	0	M1
TTP	75	288	0	E	0	M1
HLD	76	0	5	384
TTP	76	96	0	E	0	M1
TTP	76	192	0	C	0	M1
TTP	76	288	4	E	0	M1
HLD	77	0	2	384
TTP	77	96	4	E	0	M1
TTP	77	192	0	C	0	M1
TTP	77	288	0	E	0	M1
STR	78	0	6
SCL	78	0	6	96	48	3
TAP	78	192	1
TAP	78	240	1
TAP	78	288	0
TAP	78	288	2
STR	79	0	1
SCR	79	0	1	96	48	4
TAP	79	192	6
TAP	79	240	6
TAP	79	288	5
TAP	79	288	7
TAP	80	0	5
TAP	80	48	4
TAP	80	96	3
TAP	80	96	6
TAP	80	192	2
TAP	80	240	3
TAP	80	288	1
TAP	80	288	4
STR	81	0	3
SCL	81	0	3	96	192	4
STR	81	0	4
SCR	81	0	4	96	192	3
THO	82	0	0	384	C	1	M1

T_REC_TAP	259
T_REC_BRK	3
T_REC_XTP	6
T_REC_HLD	43
T_REC_XHO	5
T_REC_STR	26
T_REC_BST	3
T_REC_XST	0
T_REC_TTP	39
T_REC_THO	4
T_REC_SLD	29
T_REC_ALL	417
T_NUM_TAP	330
T_NUM_BRK	6
T_NUM_HLD	52
T_NUM_SLD	29
T_NUM_ALL	417
T_JUDGE_TAP	336
T_JUDGE_HLD	281
T_JUDGE_SLD	29
T_JUDGE_ALL	646
TTM_EACHPAIRS	88
TTM_SCR_TAP	165000
TTM_SCR_BRK	15600
TTM_SCR_HLD	52000
TTM_SCR_SLD	43500
TTM_SCR_ALL	276100
TTM_SCR_S	267250
TTM_SCR_SS	275500
TTM_RAT_ACV	10021

