VERSION	0.00.00	1.03.00
FES_MODE	0
BPM_DEF	140.000	140.000	140.000	140.000
MET_DEF	4	4
RESOLUTION	384
CLK_DEF	384
COMPATIBLE_CODE	MA2

BPM	0	0	140.000
MET	0	0	4	4

HLD	1	0	4	192
TAP	1	192	3
HLD	2	0	3	192
TAP	2	192	4
HLD	3	0	4	192
TAP	3	192	3
HLD	4	0	2	192
TAP	4	192	3
HLD	5	0	4	192
TAP	5	192	3
HLD	6	0	3	192
TAP	6	192	4
HLD	7	0	2	384
HLD	7	0	5	384
XTP	8	192	3
XTP	8	192	4
TAP	9	0	2
TAP	9	96	2
TAP	9	192	3
TAP	9	288	3
TAP	10	0	4
TAP	10	96	4
TAP	10	192	3
TAP	10	192	5
TAP	11	0	3
TAP	11	96	3
TAP	11	192	2
TAP	11	192	4
TAP	12	0	4
TAP	12	96	4
TAP	12	192	3
TAP	12	192	5
TAP	13	0	5
TAP	13	96	5
TAP	13	192	4
TAP	13	288	4
TAP	14	0	3
TAP	14	96	3
TAP	14	192	2
TAP	14	192	4
TAP	15	0	4
TAP	15	96	4
TAP	15	192	3
TAP	15	288	3
TAP	16	0	4
TAP	16	96	4
BRK	16	192	2
BRK	16	192	5
TTP	17	0	2	B	0	L1
TTP	17	192	3	B	0	L1
TTP	18	0	4	B	0	L1
TTP	18	192	5	B	0	L1
TAP	19	0	4
TAP	19	96	4
TAP	19	192	3
TAP	19	192	4
TAP	20	0	3
TAP	20	96	3
TAP	20	192	3
TAP	20	192	4
TTP	21	0	5	B	0	L1
TTP	21	192	4	B	0	L1
TTP	22	0	3	B	0	L1
TTP	22	192	2	B	0	L1
TAP	23	0	3
TAP	23	96	3
TAP	23	192	3
TAP	23	192	4
TAP	24	0	4
TAP	24	96	4
TAP	24	192	3
TAP	24	192	4
TTP	25	0	3	E	0	L1
TTP	25	96	4	E	0	L1
TTP	25	192	5	E	0	L1
HLD	26	0	5	192
TAP	26	192	4
TTP	27	0	5	E	0	L1
TTP	27	96	4	E	0	L1
TTP	27	192	3	E	0	L1
HLD	28	0	2	192
TAP	28	192	3
TTP	29	0	3	E	0	L1
TTP	29	96	4	E	0	L1
TTP	29	192	5	E	0	L1
TTP	30	0	5	E	0	L1
TTP	30	96	4	E	0	L1
TTP	30	192	3	E	0	L1
TTP	31	0	2	B	0	L1
TTP	31	0	5	B	0	L1
TTP	31	192	1	B	0	L1
TTP	31	192	6	B	0	L1
THO	32	0	0	384	C	1	L1
XTP	34	0	6
TAP	34	96	5
TAP	34	192	3
TAP	34	192	4
TAP	34	288	3
TAP	34	288	4
TAP	35	0	2
TAP	35	96	2
TAP	35	192	1
TAP	35	192	3
TAP	36	0	1
TAP	36	96	2
TAP	36	192	3
TAP	36	192	4
TAP	36	288	3
TAP	36	288	4
TAP	37	0	5
TAP	37	96	5
TAP	37	192	4
TAP	37	192	6
TAP	38	0	3
TAP	38	96	2
TAP	38	192	2
TAP	38	192	3
TAP	39	0	4
TAP	39	96	5
TAP	39	192	4
TAP	39	192	5
TAP	40	0	6
TAP	40	96	6
TAP	40	192	7
TAP	40	288	7
TAP	41	0	0
TAP	41	96	1
XTP	41	192	2
XTP	41	192	7
TAP	42	0	2
TAP	42	96	2
TAP	42	192	1
TAP	42	192	3
TAP	43	0	5
TAP	43	96	5
TAP	43	192	4
TAP	43	192	6
TAP	44	0	3
TAP	44	96	2
TAP	44	192	1
TAP	44	192	4
TAP	45	0	4
TAP	45	96	5
XTP	45	192	3
XTP	45	192	6
TAP	46	0	2
TAP	46	96	3
TAP	46	192	3
TAP	46	192	4
TAP	46	288	3
TAP	46	288	4
TAP	47	0	5
TAP	47	96	5
TAP	47	192	4
TAP	47	192	6
TAP	48	0	4
TAP	48	96	3
TAP	48	192	2
TAP	48	288	1
TAP	49	0	0
TAP	49	96	7
BRK	49	192	1
BRK	49	192	6
STR	50	0	5
SI_	50	0	5	96	192	2
STR	51	0	1
SI_	51	0	1	96	192	5
STR	52	0	6
SI_	52	0	6	96	192	2
TAP	53	0	1
TAP	53	96	1
TAP	53	192	0
TAP	53	288	0
XHO	54	0	7	96
TAP	54	192	6
TAP	54	288	6
STR	55	0	5
SI_	55	0	5	96	192	2
STR	56	0	1
SI_	56	0	1	96	192	5
STR	57	0	6
SI_	57	0	6	96	192	3
HLD	58	0	2	384
HLD	59	0	3	384
HLD	60	0	4	384
TAP	61	0	5
HLD	62	0	5	384
HLD	63	0	4	384
HLD	64	0	3	384
TAP	65	0	2
XTP	66	0	2
TAP	66	96	1
TAP	66	96	3
TAP	66	192	2
TAP	66	288	3
TAP	66	288	4
TAP	67	0	5
TAP	67	96	4
TAP	67	96	5
TAP	67	192	3
TAP	67	192	6
TAP	68	0	5
TAP	68	96	4
TAP	68	96	6
TAP	68	192	5
TAP	68	288	3
TAP	68	288	4
TAP	69	0	2
TAP	69	96	2
TAP	69	96	3
TAP	69	192	1
TAP	69	192	4
TAP	70	0	4
TAP	70	96	5
TAP	70	192	3
TAP	70	192	6
TAP	71	0	3
TAP	71	96	2
TAP	71	192	1
TAP	71	192	4
TAP	72	0	1
TAP	72	96	1
TAP	72	192	0
TAP	72	288	0
TAP	73	0	7
TAP	73	96	6
XTP	73	192	0
XTP	73	192	5
TAP	74	0	6
TAP	74	96	6
TAP	74	192	5
TAP	74	192	7
TAP	75	0	1
TAP	75	96	1
TAP	75	192	0
TAP	75	192	2
TAP	76	0	3
TAP	76	96	2
TAP	76	192	1
TAP	76	192	4
TAP	77	0	4
TAP	77	96	5
TAP	77	192	3
TAP	77	192	6
TAP	78	0	6
TAP	78	0	7
TAP	78	96	0
TAP	78	96	5
TAP	78	192	1
TAP	78	192	4
TAP	79	0	0
TAP	79	0	1
TAP	79	96	2
TAP	79	96	7
TAP	79	192	3
TAP	79	192	6
TAP	80	0	4
TAP	80	96	3
TAP	80	192	2
TAP	80	192	5
XST	80	288	1
SLR	80	288	1	96	240	0
XST	80	288	6
SLL	80	288	6	96	240	7
XTP	82	0	1
XTP	82	0	6

T_REC_TAP	192
T_REC_BRK	4
T_REC_XTP	12
T_REC_HLD	16
T_REC_XHO	1
T_REC_STR	6
T_REC_BST	0
T_REC_XST	2
T_REC_TTP	24
T_REC_THO	1
T_REC_SLD	8
T_REC_ALL	266
T_NUM_TAP	236
T_NUM_BRK	4
T_NUM_HLD	18
T_NUM_SLD	8
T_NUM_ALL	266
T_JUDGE_TAP	240
T_JUDGE_HLD	106
T_JUDGE_SLD	8
T_JUDGE_ALL	354
TTM_EACHPAIRS	52
TTM_SCR_TAP	118000
TTM_SCR_BRK	10400
TTM_SCR_HLD	18000
TTM_SCR_SLD	12000
TTM_SCR_ALL	158400
TTM_SCR_S	153300
TTM_SCR_SS	158000
TTM_RAT_ACV	10025

