VERSION	0.00.00	1.03.00
FES_MODE	0
BPM_DEF	170.000	170.000	170.000	 73.000
MET_DEF	4	4
RESOLUTION	384
CLK_DEF	384
COMPATIBLE_CODE	MA2

BPM	0	0	170.000
BPM	105	0	150.000
BPM	106	0	 73.000
BPM	107	0	 79.000
MET	0	0	4	4
CLK	0	0
CLK	0	96
CLK	0	192
CLK	0	288

XTP	1	0	1
XTP	1	0	7
TAP	1	96	2
TAP	1	144	3
HLD	1	192	2	384
TAP	1	288	3
TAP	2	0	1
STR	2	96	0
SCL	2	96	0	96	96	3
TAP	3	0	0
TAP	3	0	6
TAP	3	96	5
TAP	3	144	4
HLD	3	192	5	384
TAP	3	288	4
TAP	4	0	6
STR	4	96	7
SCR	4	96	7	96	96	4
TAP	5	0	1
TAP	5	96	2
TAP	5	144	3
HLD	5	192	2	384
TAP	5	288	1
TAP	6	0	0
TAP	6	96	7
TAP	6	192	6
TAP	6	288	3
TAP	6	336	4
STR	7	0	2
SXR	7	0	2	96	192	4
STR	7	0	5
SXL	7	0	5	96	192	3
XST	8	0	3
SXR	8	0	3	96	192	0
XST	8	0	4
SXL	8	0	4	96	192	7
XTP	9	0	1
XTP	9	0	6
TAP	9	96	2
TAP	9	192	3
TAP	9	288	5
TAP	9	336	5
TAP	10	0	3
TAP	10	48	3
HLD	10	96	4	96
TAP	10	192	3
TAP	10	288	2
HLD	11	0	2	96
TAP	11	96	4
TAP	11	144	3
HLD	11	192	5	96
HLD	11	288	6	96
HLD	12	0	7	96
HLD	12	96	0	96
HLD	12	192	1	96
HLD	12	288	2	96
XST	13	0	3
SI_	13	0	3	96	48	6
XST	13	192	3
SI_	13	192	3	96	48	6
SI_	13	192	3	96	48	7
XST	14	0	3
SI_	14	0	3	96	48	0
SI_	14	0	3	96	48	6
XST	14	192	3
SI_	14	192	3	96	48	1
SI_	14	192	3	96	48	6
XST	15	0	3
SXL	15	0	3	96	192	3
SXR	15	0	3	96	192	3
TAP	16	0	5
TAP	16	96	4
TAP	16	96	6
TAP	16	192	3
TAP	16	240	3
TAP	16	288	2
TAP	16	288	4
XTP	17	0	1
XTP	17	0	6
HLD	17	96	5	96
HLD	17	192	4	96
HLD	17	288	3	96
TAP	18	0	2
TAP	18	48	2
TAP	18	96	1
TAP	18	96	4
TAP	18	192	4
TAP	18	192	5
TAP	18	288	6
TAP	18	336	7
TAP	19	0	6
TAP	19	96	1
TAP	19	144	0
STR	19	192	1
SV_	19	192	1	96	48	0
STR	20	0	6
SV_	20	0	6	96	48	7
TAP	20	192	2
TAP	20	288	3
TAP	20	288	4
XST	21	0	4
SI_	21	0	4	96	48	1
XTP	21	0	6
XST	21	192	4
SI_	21	192	4	96	48	0
SI_	21	192	4	96	48	1
XST	22	0	4
SI_	22	0	4	96	48	1
SI_	22	0	4	96	48	7
XST	22	192	4
SI_	22	192	4	96	48	1
SI_	22	192	4	96	48	6
XST	23	0	4
SXL	23	0	4	96	192	4
SXR	23	0	4	96	192	4
TAP	24	0	2
TAP	24	96	2
TAP	24	96	4
TAP	24	192	5
TAP	24	240	4
TAP	24	288	3
TAP	24	288	6
XHO	25	0	0	576
TTP	25	96	0	E	0	M1
TTP	25	192	0	C	0	M1
TTP	25	288	4	E	0	M1
TAP	26	0	2
TAP	26	96	3
TAP	26	192	4
TAP	26	288	5
TTP	27	0	0	C	0	M1
TTP	27	0	6	B	0	M1
TTP	27	0	7	E	0	M1
TTP	27	0	7	B	0	M1
TTP	27	192	0	C	0	M1
TTP	27	192	0	B	0	M1
TTP	27	192	1	B	0	M1
TTP	27	192	1	E	0	M1
THO	28	0	0	192	C	0	M1
XHO	29	0	7	576
TTP	29	96	0	E	0	M1
TTP	29	192	0	C	0	M1
TTP	29	288	4	E	0	M1
HLD	30	0	5	96
TAP	30	192	0
STR	30	288	0
SCL	30	288	0	96	192	4
HLD	30	288	1	288
STR	31	288	7
SCR	31	288	7	96	192	3
TAP	32	0	6
TAP	32	96	6
TAP	32	192	5
STR	32	288	3
SI_	32	288	3	96	48	6
STR	32	288	4
SI_	32	288	4	96	48	6
STR	33	96	3
SI_	33	96	3	96	48	1
STR	33	96	4
SI_	33	96	4	96	48	1
TAP	33	288	3
TAP	33	288	4
TTP	34	0	0	C	1	M1
TAP	34	192	1
TAP	34	192	6
STR	34	288	7
SCL	34	288	7	96	96	2
XHO	35	0	0	192
XTP	35	0	7
TAP	35	144	7
TAP	35	192	7
STR	35	288	7
SI_	35	288	7	96	96	3
STR	36	0	3
SCR	36	0	3	96	96	6
STR	36	96	6
SI_	36	96	6	96	96	2
STR	36	192	2
SCR	36	192	2	96	96	5
TAP	36	288	5
TAP	37	0	7
STR	37	96	0
SF_	37	96	0	96	96	4
TAP	37	144	0
TAP	38	0	1
TAP	38	0	7
TAP	38	96	2
TAP	38	96	6
TAP	38	192	3
TAP	38	192	5
STR	38	288	4
SXL	38	288	4	96	144	4
SXR	38	288	4	96	144	4
TAP	39	192	2
TAP	39	192	6
TAP	39	288	2
TAP	39	288	7
TAP	40	0	0
HLD	40	0	4	288
TAP	40	96	6
TAP	40	144	6
TAP	40	240	2
STR	40	288	2
SCL	40	288	2	96	96	7
TAP	41	0	3
STR	41	96	5
SCR	41	96	5	96	96	0
TAP	41	192	4
TAP	41	288	2
TAP	42	0	3
HLD	42	0	4	288
TAP	42	96	5
TAP	42	192	7
XST	42	288	0
SCR	42	288	0	96	96	5
XTP	43	0	0
XHO	43	0	7	192
TAP	43	144	0
TAP	43	192	0
STR	43	288	0
SI_	43	288	0	96	96	4
STR	44	0	4
SCL	44	0	4	96	96	1
STR	44	96	1
SI_	44	96	1	96	96	5
STR	44	192	5
SCL	44	192	5	96	96	2
TAP	44	288	2
TAP	45	0	0
STR	45	96	1
SV_	45	96	1	96	96	2
STR	45	96	6
SV_	45	96	6	96	96	5
TAP	45	144	1
TAP	45	144	6
TAP	46	0	1
TAP	46	0	6
TAP	46	96	3
TAP	46	96	4
TAP	46	192	5
TAP	46	192	7
TAP	46	288	0
TAP	46	288	2
TAP	47	0	4
STR	47	0	6
SCR	47	0	6	96	96	2
TAP	47	96	3
TAP	47	144	3
TAP	47	288	3
TAP	47	288	4
STR	48	0	1
SCL	48	0	1	96	96	5
TAP	48	0	3
TAP	48	96	4
TAP	48	144	4
TAP	48	288	3
TAP	48	288	4
HLD	49	0	2	96
HLD	49	0	6	96
STR	49	144	0
SCR	49	144	0	96	336	6
HLD	49	144	4	432
TAP	50	288	0
TAP	50	288	5
HLD	51	0	2	240
TAP	51	96	3
HLD	51	144	3	96
TAP	51	288	1
TAP	51	288	4
HLD	52	0	5	240
TAP	52	96	4
HLD	52	144	4	96
TAP	52	288	3
TAP	52	288	6
STR	53	0	0
SXL	53	0	0	96	192	3
STR	53	0	4
SXL	53	0	4	96	192	7
TAP	54	0	2
TAP	54	0	5
TAP	54	48	4
TAP	54	96	3
TAP	54	144	4
TAP	54	192	2
TAP	54	192	5
HLD	55	0	3	768
TTP	55	192	0	C	0	M1
TAP	56	0	0
TAP	56	96	0
TAP	56	192	7
TAP	56	288	7
THO	57	0	0	576	C	0	M1
TAP	57	192	7
TAP	57	288	0
HLD	58	0	1	192
HLD	59	0	2	96
HLD	59	96	3	96
TTP	59	192	0	C	0	M1
HLD	60	0	5	96
HLD	60	96	4	96
TTP	60	192	0	C	0	M1
BRK	61	0	0
TAP	61	48	7
TAP	61	96	1
TAP	61	144	6
TAP	61	192	2
TAP	61	240	5
TAP	61	288	3
TAP	61	336	4
XST	62	0	3
SCL	62	0	3	96	48	0
XST	62	0	6
SCL	62	0	6	96	48	3
XTP	62	192	0
XTP	62	192	7
BRK	62	240	1
BRK	62	240	6
XST	63	0	0
SI_	63	0	0	96	48	4
XTP	63	0	4
TAP	63	96	7
STR	63	144	7
SI_	63	144	7	96	48	5
TAP	63	240	1
STR	63	288	1
SI_	63	288	1	96	48	3
TAP	64	0	7
STR	64	48	7
SI_	64	48	7	96	48	3
TAP	64	144	0
TAP	64	192	0
TAP	64	288	1
TAP	64	288	7
STR	65	0	0
SI_	65	0	0	96	48	4
STR	65	0	5
SI_	65	0	5	96	48	7
STR	65	192	2
SI_	65	192	2	96	48	0
STR	65	192	7
SI_	65	192	7	96	48	3
TAP	66	0	0
XHO	66	0	5	288
TAP	66	96	4
TAP	66	144	4
TAP	66	192	3
TAP	66	240	2
TAP	66	288	1
TAP	66	336	0
HLD	67	0	7	96
TAP	67	48	5
TAP	67	96	5
HLD	67	144	6	96
TAP	67	192	4
TAP	67	240	4
HLD	67	288	5	96
TAP	67	336	3
TAP	68	0	3
HLD	68	48	4	96
TAP	68	96	2
TAP	68	144	2
TAP	68	192	3
TAP	68	240	2
TAP	68	288	1
TAP	68	336	0
XTP	69	0	0
XTP	69	0	6
TAP	69	96	3
TAP	69	96	4
XTP	69	144	1
XTP	69	144	6
TAP	69	240	3
TAP	69	240	4
XTP	69	288	2
XTP	69	288	6
TAP	70	0	3
TAP	70	0	4
XTP	70	48	1
XTP	70	48	6
TAP	70	144	3
TAP	70	144	4
BRK	70	192	0
BRK	70	192	6
HLD	71	0	2	576
HLD	71	0	4	192
TAP	72	0	5
TAP	72	96	5
HLD	72	192	5	768
HLD	73	0	3	192
TAP	74	0	2
TAP	74	96	2
HLD	74	192	2	768
HLD	75	0	4	192
TAP	76	0	5
TAP	76	96	5
TAP	76	192	5
TAP	76	288	3
TAP	76	336	4
STR	77	0	3
SF_	77	0	3	96	192	7
TAP	78	0	2
TAP	78	0	3
TAP	78	96	1
TAP	78	96	4
TAP	78	192	0
TAP	78	192	5
TAP	78	288	6
STR	78	288	7
SCL	78	288	7	96	96	2
XHO	79	0	0	192
XTP	79	0	7
TAP	79	144	7
TAP	79	192	7
STR	79	288	7
SI_	79	288	7	96	96	3
STR	80	0	3
SCL	80	0	3	96	96	0
STR	80	96	0
SI_	80	96	0	96	96	4
STR	80	192	4
SCR	80	192	4	96	96	7
TAP	80	288	7
TAP	81	0	0
STR	81	96	2
SV_	81	96	2	96	96	0
STR	81	96	6
SV_	81	96	6	96	96	4
TAP	81	144	2
TAP	81	144	6
TAP	82	0	2
TAP	82	0	4
TAP	82	96	3
TAP	82	96	5
TAP	82	192	1
TAP	82	192	4
TAP	82	288	3
TAP	82	288	6
HLD	83	0	0	144
TAP	83	0	3
TAP	83	96	4
TAP	83	144	4
TAP	83	240	3
TAP	83	240	5
TAP	83	288	3
TAP	83	288	5
TAP	84	0	4
HLD	84	0	7	144
TAP	84	96	3
TAP	84	144	3
TAP	84	240	2
TAP	84	240	4
STR	84	288	2
SCL	84	288	2	96	96	7
TAP	84	288	4
TAP	85	0	3
STR	85	96	5
SCR	85	96	5	96	96	0
TAP	85	192	4
HLD	85	288	2	288
TAP	86	0	3
TAP	86	96	1
TAP	86	192	7
STR	86	288	0
SCR	86	288	0	96	96	5
TAP	86	288	5
XTP	87	0	0
XHO	87	0	7	192
TAP	87	144	0
TAP	87	192	0
STR	87	288	0
SI_	87	288	0	96	96	4
STR	88	0	4
SCR	88	0	4	96	96	7
STR	88	96	7
SI_	88	96	7	96	96	3
STR	88	192	3
SCL	88	192	3	96	96	0
TAP	88	288	0
TAP	89	0	7
STR	89	96	0
SV_	89	96	0	96	96	3
STR	89	96	6
SV_	89	96	6	96	96	3
TAP	89	144	0
TAP	89	144	6
TAP	90	0	0
STR	90	0	2
SCR	90	0	2	96	48	5
TAP	90	96	7
TAP	90	192	4
STR	90	192	6
SCR	90	192	6	96	48	1
TAP	90	288	3
TAP	91	0	0
HLD	91	0	2	144
TAP	91	96	3
STR	91	144	3
SCR	91	144	3	96	48	5
TAP	91	288	0
HLD	92	0	5	144
TAP	92	0	7
TAP	92	96	4
STR	92	144	4
SCL	92	144	4	96	48	2
TAP	92	288	6
TAP	92	336	5
TAP	93	0	3
TAP	93	0	4
TAP	93	96	0
TAP	93	96	5
STR	93	144	0
SSL	93	144	0	96	240	4
HLD	93	144	5	336
TAP	94	192	3
TAP	94	192	5
TAP	94	288	1
TAP	94	288	4
STR	95	0	2
SLR	95	0	2	96	192	0
TAP	95	0	3
TAP	95	96	5
TAP	95	144	5
TAP	95	288	7
TAP	96	0	4
STR	96	0	5
SLL	96	0	5	96	192	7
TAP	96	96	2
TAP	96	144	2
TAP	96	288	0
TAP	96	336	0
TAP	97	0	0
TAP	97	0	7
STR	97	96	1
SUL	97	96	1	96	192	5
STR	97	96	6
SUR	97	96	6	96	192	2
TAP	97	144	1
TAP	97	144	6
TAP	98	144	4
TAP	98	192	5
TAP	98	240	4
TAP	98	288	3
XTP	99	0	0
XTP	99	0	6
TAP	99	96	5
TAP	99	144	4
HLD	99	192	5	480
TAP	99	288	6
TAP	100	0	2
STR	100	96	7
SCR	100	96	7	96	96	3
XTP	100	192	7
TAP	101	0	1
TAP	101	0	7
TAP	101	96	2
TAP	101	144	3
HLD	101	192	2	480
TAP	101	288	1
TAP	102	0	5
STR	102	96	0
SCL	102	96	0	96	96	4
XTP	102	192	0
TAP	103	0	0
TAP	103	0	6
TAP	103	96	5
TAP	103	144	4
HLD	103	192	5	384
TAP	103	288	6
TAP	104	0	2
TAP	104	96	7
TAP	104	192	1
TAP	104	288	3
TAP	104	336	4
STR	105	0	2
SXR	105	0	2	96	192	4
STR	105	0	5
SXL	105	0	5	96	192	3
XST	106	0	3
SXR	106	0	3	96	192	0
XST	106	0	4
SXL	106	0	4	96	192	7
XTP	107	0	1
XTP	107	0	6
TTP	107	96	0	E	0	M1
TTP	107	120	1	E	0	M1
TTP	107	144	2	E	0	M1
TTP	107	168	3	E	0	M1
TTP	107	192	4	E	0	M1
TTP	107	216	5	E	0	M1
TTP	107	240	6	E	0	M1
TTP	107	264	7	E	0	M1
TTP	108	0	0	B	0	M1
TTP	108	0	0	C	1	M1
TTP	108	0	1	B	0	M1
TTP	108	0	6	B	0	M1
TTP	108	0	7	B	0	M1

T_REC_TAP	291
T_REC_BRK	5
T_REC_XTP	28
T_REC_HLD	50
T_REC_XHO	7
T_REC_STR	69
T_REC_BST	0
T_REC_XST	18
T_REC_TTP	31
T_REC_THO	2
T_REC_SLD	96
T_REC_ALL	597
T_NUM_TAP	437
T_NUM_BRK	5
T_NUM_HLD	59
T_NUM_SLD	96
T_NUM_ALL	597
T_JUDGE_TAP	442
T_JUDGE_HLD	300
T_JUDGE_SLD	96
T_JUDGE_ALL	838
TTM_EACHPAIRS	105
TTM_SCR_TAP	218500
TTM_SCR_BRK	13000
TTM_SCR_HLD	59000
TTM_SCR_SLD	144000
TTM_SCR_ALL	434500
TTM_SCR_S	421000
TTM_SCR_SS	434000
TTM_RAT_ACV	10011

