VERSION	0.00.00	1.03.00
FES_MODE	0
BPM_DEF	170.000	170.000	170.000	 73.000
MET_DEF	4	4
RESOLUTION	384
CLK_DEF	384
COMPATIBLE_CODE	MA2

BPM	0	0	170.000
BPM	105	0	150.000
BPM	106	0	 73.000
BPM	107	0	 79.000
MET	0	0	4	4
CLK	0	0
CLK	0	96
CLK	0	192
CLK	0	288

TAP	1	0	5
TAP	1	96	4
TAP	1	96	6
TAP	1	192	3
TAP	1	288	2
TAP	1	288	3
HLD	2	0	4	96
HLD	2	96	5	96
HLD	2	192	6	96
TAP	3	0	2
TAP	3	96	1
TAP	3	96	3
TAP	3	192	4
TAP	3	288	4
TAP	3	288	5
HLD	4	0	3	96
HLD	4	96	2	96
HLD	4	192	1	96
TAP	5	0	5
TAP	5	96	4
TAP	5	96	6
TAP	5	192	2
TAP	5	288	1
TAP	5	288	3
TAP	6	0	0
TAP	6	0	7
TAP	6	96	1
TAP	6	96	6
TAP	6	192	2
TAP	6	192	5
TAP	6	288	3
STR	6	288	4
SCR	6	288	4	96	288	3
STR	8	0	2
SUL	8	0	2	96	144	5
TAP	8	0	5
TAP	9	0	6
TAP	9	96	4
TAP	9	96	5
TAP	9	192	3
TAP	9	288	2
TAP	9	288	4
TAP	10	0	2
TAP	10	0	3
TAP	10	96	2
TAP	10	96	3
TAP	10	192	1
TAP	10	288	0
TAP	11	0	1
TAP	11	96	2
TAP	11	192	3
TAP	11	192	5
XTP	11	288	4
XTP	12	0	3
XTP	12	0	5
XTP	12	96	2
XTP	12	96	6
XTP	12	192	1
XTP	12	192	7
XTP	12	288	0
STR	13	0	0
SI_	13	0	0	96	48	2
STR	13	192	6
SI_	13	192	6	96	48	4
STR	14	0	7
SI_	14	0	7	96	48	2
STR	14	192	6
SI_	14	192	6	96	48	3
STR	15	0	0
SCR	15	0	0	96	192	7
TAP	16	0	0
TAP	16	0	7
TAP	16	96	4
TAP	16	96	5
XTP	16	192	1
XTP	16	192	6
TAP	17	0	1
TAP	17	96	2
TAP	17	96	3
TAP	17	192	4
TAP	17	288	3
TAP	17	288	5
TAP	18	0	4
TAP	18	0	5
TAP	18	96	4
TAP	18	96	5
TAP	18	192	6
TAP	18	288	7
TAP	19	0	0
TAP	19	96	1
TAP	19	192	2
XTP	19	288	3
XTP	20	0	2
XTP	20	0	4
XTP	20	96	1
XTP	20	96	5
XTP	20	192	0
XTP	20	192	6
XTP	20	288	7
STR	21	0	7
SI_	21	0	7	96	48	5
STR	21	192	1
SI_	21	192	1	96	48	3
STR	22	0	0
SI_	22	0	0	96	48	5
STR	22	192	1
SI_	22	192	1	96	48	4
STR	23	0	7
SCL	23	0	7	96	192	0
TAP	24	0	0
TAP	24	0	7
TAP	24	96	1
TAP	24	96	6
XTP	24	192	2
XTP	24	192	5
HLD	25	0	3	192
TAP	25	0	5
TTP	25	192	4	B	0	M1
HLD	26	0	2	192
TAP	26	0	3
TTP	26	192	3	B	0	M1
TAP	27	0	2
HLD	27	0	4	192
TTP	27	192	3	B	0	M1
TAP	28	0	4
HLD	28	0	5	192
TTP	28	192	4	B	0	M1
TTP	29	0	5	B	0	M1
TTP	29	192	0	B	0	M1
TTP	29	192	1	B	0	M1
TTP	30	0	3	B	0	M1
TTP	30	192	6	B	0	M1
TTP	30	192	7	B	0	M1
STR	31	0	1
SCR	31	0	1	96	192	6
TAP	32	0	7
TAP	32	96	0
TAP	32	96	6
TAP	32	192	1
TAP	32	192	5
TAP	32	288	2
TAP	32	288	4
HLD	33	0	3	192
HLD	33	192	7	192
TTP	34	0	0	C	1	M1
STR	35	0	0
SUL	35	0	0	96	96	3
STR	35	0	7
SCL	35	0	7	96	96	4
TAP	35	288	2
TAP	36	0	0
TAP	36	0	1
TAP	36	96	7
TAP	36	192	4
TAP	36	192	5
TAP	36	288	3
TAP	37	0	0
STR	37	0	1
SCR	37	0	1	96	192	6
BRK	38	0	1
BRK	38	0	7
TAP	38	96	6
TAP	38	192	5
TAP	38	288	2
TAP	38	288	4
HLD	39	0	1	192
TAP	39	96	3
TAP	39	192	0
TAP	39	288	0
TAP	39	288	7
HLD	40	0	5	144
TAP	40	96	4
TAP	40	144	4
TAP	40	288	3
TAP	40	288	4
HLD	41	0	1	96
TAP	41	96	3
HLD	41	192	6	96
TAP	41	288	4
TAP	42	0	2
TAP	42	0	5
XTP	42	96	3
XTP	42	96	4
XTP	42	192	2
XTP	42	192	5
XTP	42	288	1
XTP	42	288	6
STR	43	0	0
SCR	43	0	0	96	96	3
STR	43	0	7
SUR	43	0	7	96	96	4
TAP	43	288	5
TAP	44	0	6
TAP	44	0	7
TAP	44	96	0
TAP	44	192	2
TAP	44	192	3
TAP	44	288	4
STR	45	0	6
SCL	45	0	6	96	192	1
TAP	45	0	7
BRK	46	0	0
BRK	46	0	6
TAP	46	96	1
TAP	46	192	2
TAP	46	288	3
TAP	46	288	5
HLD	47	0	6	96
TAP	47	96	4
STR	47	144	4
SI_	47	144	4	96	96	0
HLD	48	0	1	96
TAP	48	96	3
STR	48	144	3
SI_	48	144	3	96	96	7
TAP	49	0	3
TAP	49	0	4
TAP	49	96	2
TAP	49	144	2
TAP	49	192	5
TAP	49	240	5
TAP	49	288	0
TAP	49	336	0
TAP	50	0	6
TAP	50	48	6
TAP	50	96	6
TAP	50	96	7
TAP	50	192	1
TAP	50	192	4
TAP	50	288	2
TAP	50	288	3
TAP	51	0	3
HLD	51	0	4	192
TAP	51	144	7
TAP	51	192	7
TAP	51	288	2
TAP	51	288	5
HLD	52	0	3	192
TAP	52	0	4
TAP	52	144	0
TAP	52	192	0
TAP	52	288	3
TAP	52	288	4
TAP	53	0	2
TAP	53	0	5
TAP	53	96	1
TAP	53	96	6
TAP	53	144	1
TAP	53	144	6
TAP	53	192	1
TAP	53	192	6
TAP	53	288	0
TAP	53	288	7
TAP	53	336	0
TAP	53	336	7
BST	54	0	0
SUL	54	0	0	96	96	4
BRK	54	0	7
TAP	55	0	3
TAP	55	0	4
TTP	55	192	4	B	0	M1
TTP	56	0	5	B	0	M1
TTP	56	192	6	B	0	M1
TTP	57	0	7	B	0	M1
TTP	57	192	0	B	0	M1
TTP	58	0	1	B	0	M1
TTP	58	192	2	B	0	M1
TTP	59	0	3	B	0	M1
TTP	59	0	4	B	0	M1
TTP	59	192	0	C	0	M1
TTP	60	0	0	B	0	M1
TTP	60	0	7	B	0	M1
TTP	60	192	1	B	0	M1
TTP	60	192	6	B	0	M1
TTP	61	0	0	C	1	M1
TAP	61	288	0
TAP	61	288	7
TAP	62	0	0
TAP	62	0	7
TAP	62	96	3
TAP	62	96	4
BRK	62	192	1
BRK	62	192	5
TAP	63	0	6
TAP	63	0	7
TAP	63	96	5
TAP	63	192	3
TAP	63	192	4
TAP	63	288	2
TAP	64	0	1
TAP	64	48	1
TAP	64	96	3
TAP	64	192	6
TAP	64	240	6
TAP	64	288	4
STR	65	0	3
SI_	65	0	3	96	48	1
TAP	65	0	4
STR	65	192	3
SI_	65	192	3	96	48	6
STR	66	0	3
SI_	66	0	3	96	48	0
TAP	66	192	7
TAP	66	240	6
TAP	66	288	4
TAP	66	288	5
HLD	67	0	3	96
HLD	67	96	2	96
HLD	67	192	1	96
HLD	67	288	0	96
HLD	68	0	7	96
HLD	68	96	6	96
HLD	68	192	5	96
TAP	68	288	4
XTP	69	0	1
XTP	69	0	3
XTP	69	144	4
XTP	69	144	6
XTP	69	288	0
XTP	69	288	1
XTP	70	48	6
STR	70	48	7
SCL	70	48	7	96	144	4
SCR	70	48	7	96	144	2
TAP	71	0	2
HLD	71	0	3	192
TAP	71	192	4
TAP	72	0	4
TAP	72	0	5
TAP	72	96	3
TAP	72	192	2
HLD	73	0	3	192
TAP	73	0	4
TAP	73	192	2
TAP	74	0	2
TAP	74	0	3
TAP	74	96	4
TAP	74	192	5
HLD	75	0	3	192
TAP	75	0	4
HLD	75	192	2	192
HLD	76	0	3	192
HLD	76	192	4	192
THO	77	0	0	384	C	1	M1
STR	79	0	6
SCL	79	0	6	96	96	3
STR	79	0	7
SUL	79	0	7	96	96	2
TAP	79	288	1
TAP	80	0	0
TAP	80	0	7
TAP	80	96	6
TAP	80	192	4
TAP	80	192	5
TAP	80	288	3
TAP	81	0	0
STR	81	0	1
SCR	81	0	1	96	192	6
BRK	82	0	1
BRK	82	0	6
TAP	82	96	5
TAP	82	192	4
TAP	82	288	3
TAP	82	288	5
HLD	83	0	2	192
TAP	83	0	3
TAP	83	96	1
TAP	83	192	0
TAP	83	288	0
TAP	83	288	7
HLD	84	0	5	144
TAP	84	96	4
TAP	84	144	4
TAP	84	288	3
TAP	84	288	4
TAP	85	0	0
HLD	85	0	1	96
TAP	85	96	3
HLD	85	192	6	96
TAP	85	192	7
TAP	85	288	4
TAP	86	0	2
TAP	86	0	5
XTP	86	96	4
XTP	86	96	5
XTP	86	192	3
XTP	86	192	6
XTP	86	288	2
XTP	86	288	7
STR	87	0	0
SUR	87	0	0	96	96	5
STR	87	0	1
SCR	87	0	1	96	96	4
TAP	87	288	6
TAP	88	0	0
TAP	88	0	7
TAP	88	96	1
TAP	88	192	2
TAP	88	192	3
TAP	88	288	4
STR	89	0	6
SCL	89	0	6	96	192	1
TAP	89	0	7
BRK	90	0	1
BRK	90	0	6
TAP	90	96	2
TAP	90	192	3
TAP	90	288	3
TAP	90	288	4
TAP	91	0	4
HLD	91	0	5	96
TAP	91	96	7
STR	91	144	7
SI_	91	144	7	96	96	2
HLD	92	0	1	96
TAP	92	0	3
TAP	92	96	0
STR	92	144	0
SI_	92	144	0	96	96	5
TAP	93	0	3
TAP	93	0	4
TAP	93	96	2
TAP	93	144	2
TAP	93	192	5
TAP	93	240	5
TAP	93	288	0
TAP	93	336	0
TAP	94	0	6
TAP	94	48	6
TAP	94	96	5
TAP	94	96	7
TAP	94	192	0
TAP	94	192	1
XTP	94	288	1
XTP	94	288	6
TAP	95	0	3
HLD	95	0	4	192
TAP	95	96	7
STR	95	144	7
SI_	95	144	7	96	48	5
HLD	96	0	3	192
TAP	96	0	4
TAP	96	96	0
STR	96	144	0
SI_	96	144	0	96	48	2
TAP	97	0	3
TAP	97	0	4
TAP	97	96	1
TAP	97	96	6
TAP	97	144	1
TAP	97	144	6
TAP	97	192	1
TAP	97	192	6
TAP	97	288	0
TAP	97	288	7
TAP	97	336	0
TAP	97	336	7
BRK	98	0	0
BRK	98	0	7
TTP	98	192	0	C	0	M1
TAP	99	0	1
TAP	99	96	0
TAP	99	96	2
TAP	99	192	7
TAP	99	288	6
TAP	99	288	7
HLD	100	0	0	96
HLD	100	96	1	96
HLD	100	192	2	96
TAP	101	0	6
TAP	101	96	5
TAP	101	96	7
TAP	101	192	0
TAP	101	288	0
TAP	101	288	1
HLD	102	0	7	96
HLD	102	96	6	96
HLD	102	192	5	96
TAP	103	0	1
TAP	103	96	0
TAP	103	96	2
TAP	103	192	6
TAP	103	288	5
TAP	103	288	7
TAP	104	0	3
TAP	104	0	4
TAP	104	96	2
TAP	104	96	5
TAP	104	192	1
TAP	104	192	6
STR	104	288	0
SCR	104	288	0	96	288	7
TAP	104	288	7
XTP	106	0	1
XST	106	0	6
SCL	106	0	6	96	144	1
THO	107	0	0	384	C	0	M1

T_REC_TAP	289
T_REC_BRK	13
T_REC_XTP	42
T_REC_HLD	47
T_REC_XHO	0
T_REC_STR	36
T_REC_BST	1
T_REC_XST	1
T_REC_TTP	27
T_REC_THO	2
T_REC_SLD	39
T_REC_ALL	497
T_NUM_TAP	395
T_NUM_BRK	14
T_NUM_HLD	49
T_NUM_SLD	39
T_NUM_ALL	497
T_JUDGE_TAP	409
T_JUDGE_HLD	156
T_JUDGE_SLD	39
T_JUDGE_ALL	604
TTM_EACHPAIRS	137
TTM_SCR_TAP	197500
TTM_SCR_BRK	36400
TTM_SCR_HLD	49000
TTM_SCR_SLD	58500
TTM_SCR_ALL	341400
TTM_SCR_S	329800
TTM_SCR_SS	340000
TTM_RAT_ACV	10041

