VERSION	0.00.00	1.03.00
FES_MODE	0
BPM_DEF	170.000	170.000	170.000	 73.000
MET_DEF	4	4
RESOLUTION	384
CLK_DEF	384
COMPATIBLE_CODE	MA2

BPM	0	0	170.000
BPM	105	0	150.000
BPM	106	0	 73.000
BPM	107	0	 79.000
MET	0	0	4	4

HLD	1	0	5	192
TAP	1	192	4
TAP	2	0	4
TAP	2	96	4
TAP	2	192	3
TAP	2	192	5
HLD	3	0	2	192
TAP	3	192	3
TAP	4	0	3
TAP	4	96	3
TAP	4	192	2
TAP	4	192	4
HLD	5	0	5	192
TAP	5	192	4
TAP	6	0	4
TAP	6	96	4
TAP	6	192	3
TAP	6	192	5
HLD	7	0	2	384
TAP	8	0	5
TAP	8	192	3
TAP	8	192	4
TAP	9	0	2
TAP	9	96	2
TAP	9	192	2
TAP	9	192	3
TAP	10	0	4
TAP	10	96	4
TAP	10	192	3
TAP	10	192	4
TAP	11	0	2
TAP	11	96	2
TAP	11	192	3
TAP	11	288	3
TAP	12	0	4
TAP	12	96	4
TAP	12	192	5
TAP	12	288	5
TAP	13	0	4
TAP	13	0	6
TAP	13	192	3
TAP	13	192	4
TAP	14	0	1
TAP	14	0	3
TAP	14	192	3
TAP	14	192	4
STR	15	0	5
SCL	15	0	5	96	288	2
TAP	16	192	3
TAP	16	192	4
TAP	17	0	5
TAP	17	96	5
TAP	17	192	4
TAP	17	192	5
TAP	18	0	3
TAP	18	96	3
TAP	18	192	3
TAP	18	192	4
TAP	19	0	5
TAP	19	96	5
TAP	19	192	4
TAP	19	288	4
TAP	20	0	3
TAP	20	96	3
TAP	20	192	2
TAP	20	288	2
TAP	21	0	1
TAP	21	0	3
TAP	21	192	3
TAP	21	192	4
TAP	22	0	4
TAP	22	0	6
TAP	22	192	3
TAP	22	192	4
STR	23	0	2
SCR	23	0	2	96	288	5
TAP	24	192	3
TAP	24	192	4
TTP	25	0	2	B	0	L1
TTP	25	192	3	B	0	L1
TTP	26	0	4	B	0	L1
TTP	26	192	5	B	0	L1
TTP	27	0	6	B	0	L1
TTP	28	0	0	C	0	L1
TTP	29	0	5	B	0	L1
TTP	29	192	4	B	0	L1
TTP	30	0	3	B	0	L1
TTP	30	192	2	B	0	L1
TTP	31	0	1	B	0	L1
TTP	32	0	2	B	0	L1
TTP	32	0	5	B	0	L1
THO	33	0	0	384	C	1	L1
BRK	35	0	2
TAP	35	96	2
TAP	35	192	3
TAP	35	288	3
TAP	36	0	4
TAP	36	96	5
TAP	36	192	6
TAP	36	288	7
TAP	37	0	0
TAP	37	96	1
TAP	37	192	2
TAP	37	288	3
XTP	38	0	4
XTP	38	0	5
TAP	38	192	3
TAP	38	192	6
TAP	39	0	4
TAP	39	96	5
TAP	39	192	4
TAP	39	192	5
TAP	40	0	3
TAP	40	96	2
TAP	40	192	2
TAP	40	192	3
TAP	41	0	4
TAP	41	96	4
TAP	41	192	3
TAP	41	288	3
TAP	42	0	4
TAP	42	96	3
XTP	42	192	2
XTP	42	192	5
BRK	43	0	5
TAP	43	96	5
TAP	43	192	4
TAP	43	288	4
TAP	44	0	3
TAP	44	96	2
TAP	44	192	1
TAP	44	288	0
TAP	45	0	7
TAP	45	96	6
TAP	45	192	5
TAP	45	288	4
XTP	46	0	2
XTP	46	0	3
XTP	46	192	1
XTP	46	192	4
HLD	47	0	2	192
TAP	47	192	3
HLD	48	0	5	192
TAP	48	192	4
TAP	49	0	5
TAP	49	96	5
TAP	49	192	4
TAP	49	288	4
TAP	50	0	3
TAP	50	96	3
XTP	50	192	2
XTP	50	192	4
HLD	51	0	5	192
TAP	51	192	4
HLD	52	0	2	192
TAP	52	192	3
STR	53	0	3
SI_	53	0	3	96	288	0
STR	53	0	4
SI_	53	0	4	96	288	7
TAP	54	192	0
TAP	54	192	7
HLD	55	0	1	384
HLD	56	0	0	384
HLD	57	0	7	384
TAP	58	0	6
HLD	59	0	6	384
HLD	60	0	7	384
HLD	61	0	0	384
BRK	62	0	1
TAP	63	0	1
TAP	63	96	1
TAP	63	192	2
TAP	63	288	2
TAP	64	0	3
TAP	64	96	4
TAP	64	192	3
TAP	64	192	5
TAP	65	0	6
TAP	65	96	6
TAP	65	192	5
TAP	65	288	5
TAP	66	0	4
TAP	66	96	3
TAP	66	192	2
TAP	66	192	4
TAP	67	0	1
TAP	67	96	1
TAP	67	192	2
TAP	67	288	2
TAP	68	0	3
TAP	68	96	4
TAP	68	192	3
TAP	68	192	5
XST	69	0	3
SI_	69	0	3	96	288	0
XST	69	0	4
SI_	69	0	4	96	288	7
XTP	70	192	1
XTP	70	192	6
TTP	71	0	7	E	0	L1
TTP	72	0	0	E	0	L1
TTP	73	0	1	E	0	L1
TTP	74	0	1	E	0	L1
TTP	75	0	0	E	0	L1
TTP	76	0	7	E	0	L1
THO	77	0	0	384	C	1	L1
BRK	79	0	5
TAP	79	96	5
TAP	79	192	4
TAP	79	288	4
TAP	80	0	3
TAP	80	96	2
TAP	80	192	1
TAP	80	288	0
TAP	81	0	7
TAP	81	96	6
TAP	81	192	5
TAP	81	288	4
XTP	82	0	2
XTP	82	0	3
TAP	82	96	2
TAP	82	96	3
TAP	82	192	1
TAP	82	192	4
TAP	83	0	0
TAP	83	96	1
TAP	83	192	0
TAP	83	192	1
TAP	84	0	7
TAP	84	96	6
TAP	84	192	6
TAP	84	192	7
TAP	85	0	0
TAP	85	96	0
TAP	85	192	7
TAP	85	288	7
TAP	86	0	0
TAP	86	96	7
XTP	86	192	1
XTP	86	192	6
BRK	87	0	2
TAP	87	96	2
TAP	87	192	3
TAP	87	288	3
TAP	88	0	4
TAP	88	96	5
TAP	88	192	6
TAP	88	288	7
TAP	89	0	0
TAP	89	96	1
TAP	89	192	2
TAP	89	288	3
XTP	90	0	4
XTP	90	0	5
TAP	90	96	4
TAP	90	96	5
XTP	90	192	3
XTP	90	192	6
HLD	91	0	6	192
TAP	91	192	7
HLD	92	0	1	192
TAP	92	192	0
TAP	93	0	1
TAP	93	96	1
TAP	93	192	0
TAP	93	288	0
TAP	94	0	7
TAP	94	96	7
XTP	94	192	0
XTP	94	192	6
HLD	95	0	6	192
TAP	95	192	7
HLD	96	0	1	192
TAP	96	192	0
STR	97	0	0
SCR	97	0	0	96	288	3
STR	97	0	7
SCL	97	0	7	96	288	4
TAP	98	192	3
TAP	98	192	4
HLD	99	0	5	192
TAP	99	192	4
TAP	100	0	4
TAP	100	96	5
TAP	100	192	3
TAP	100	192	6
HLD	101	0	2	192
TAP	101	192	3
TAP	102	0	3
TAP	102	96	2
TAP	102	192	1
TAP	102	192	4
HLD	103	0	5	192
TAP	103	192	4
TAP	104	0	3
TAP	104	0	4
TTP	105	0	3	B	0	L1
TTP	105	0	4	B	0	L1
TTP	106	0	3	E	0	L1
TTP	106	0	5	E	0	L1
THO	107	0	0	384	C	0	L1

T_REC_TAP	212
T_REC_BRK	5
T_REC_XTP	22
T_REC_HLD	21
T_REC_XHO	0
T_REC_STR	6
T_REC_BST	0
T_REC_XST	2
T_REC_TTP	23
T_REC_THO	3
T_REC_SLD	8
T_REC_ALL	302
T_NUM_TAP	265
T_NUM_BRK	5
T_NUM_HLD	24
T_NUM_SLD	8
T_NUM_ALL	302
T_JUDGE_TAP	270
T_JUDGE_HLD	144
T_JUDGE_SLD	8
T_JUDGE_ALL	422
TTM_EACHPAIRS	48
TTM_SCR_TAP	132500
TTM_SCR_BRK	13000
TTM_SCR_HLD	24000
TTM_SCR_SLD	12000
TTM_SCR_ALL	181500
TTM_SCR_S	175600
TTM_SCR_SS	181000
TTM_RAT_ACV	10027

