VERSION	0.00.00	1.03.00
FES_MODE	0
BPM_DEF	170.000	170.000	170.000	 73.000
MET_DEF	4	4
RESOLUTION	384
CLK_DEF	384
COMPATIBLE_CODE	MA2

BPM	0	0	170.000
BPM	105	0	150.000
BPM	106	0	 73.000
BPM	107	0	 79.000
MET	0	0	4	4

TAP	9	0	4
TAP	10	0	4
TAP	11	0	5
TAP	12	0	5
TAP	13	0	6
TAP	14	0	6
HLD	15	0	7	384
TAP	17	0	0
TAP	18	0	0
TAP	19	0	1
TAP	20	0	1
TAP	21	0	2
TAP	22	0	2
HLD	23	0	3	384
TTP	25	0	4	B	0	L1
TTP	26	0	5	B	0	L1
TTP	27	0	6	B	0	L1
TTP	28	0	7	B	0	L1
TTP	29	0	0	B	0	L1
TTP	30	0	1	B	0	L1
TTP	31	0	2	B	0	L1
TTP	32	0	3	B	0	L1
TTP	33	0	0	C	1	L1
XTP	35	0	7
TAP	35	192	7
TAP	36	0	7
TAP	37	0	6
TAP	37	192	6
TAP	38	0	6
TAP	39	0	5
TAP	39	192	5
TAP	40	0	5
TAP	41	0	3
TAP	41	0	4
TAP	41	192	3
TAP	41	192	4
BRK	42	0	3
BRK	42	0	4
XTP	43	0	3
TAP	43	192	3
TAP	44	0	3
TAP	45	0	2
TAP	45	192	2
TAP	46	0	2
STR	47	0	1
SI_	47	0	1	96	288	5
STR	49	0	6
SI_	49	0	6	96	288	2
TAP	51	0	1
TAP	51	192	1
TAP	52	0	2
TAP	52	192	2
HLD	53	0	3	384
TTP	55	0	4	B	0	L1
TTP	56	0	3	B	0	L1
TTP	57	0	5	B	0	L1
TTP	58	0	2	B	0	L1
THO	59	0	0	768	C	1	L1
TAP	63	0	7
TAP	63	192	7
TAP	64	0	6
TAP	64	192	6
TAP	65	0	5
TAP	65	192	5
TAP	66	0	3
TAP	66	0	4
TAP	67	0	3
TAP	67	192	3
TAP	68	0	2
TAP	68	192	2
TAP	69	0	1
TAP	69	192	1
TAP	70	0	0
BRK	70	192	0
HLD	71	0	0	384
HLD	73	0	7	384
HLD	75	0	0	384
STR	77	0	7
SI_	77	0	7	96	288	3
XTP	79	0	2
TAP	79	96	2
TAP	79	192	2
TAP	80	0	2
TAP	80	96	2
TAP	80	192	2
HLD	81	0	3	384
TAP	83	0	4
TAP	83	96	4
TAP	83	192	4
TAP	84	0	4
TAP	84	96	4
TAP	84	192	4
TAP	85	0	5
TAP	85	192	5
BRK	86	0	5
XTP	87	0	6
TAP	87	96	6
TAP	87	192	6
TAP	88	0	6
TAP	88	96	6
TAP	88	192	6
HLD	89	0	7	384
TAP	91	0	0
TAP	91	192	0
TAP	92	0	7
TAP	92	192	7
STR	93	0	0
SI_	93	0	0	96	288	4
TAP	95	0	7
TAP	95	192	7
TAP	96	0	0
TAP	96	192	0
STR	97	0	7
SI_	97	0	7	96	288	3
TAP	99	0	2
TAP	99	96	2
TAP	99	192	2
TAP	100	0	2
TAP	100	96	2
TAP	100	192	2
TAP	101	0	1
TAP	101	96	1
TAP	101	192	1
TAP	102	0	1
TAP	102	96	1
TAP	102	192	1
TAP	103	0	0
TAP	103	96	0
TAP	103	192	0
TAP	104	0	0
TAP	104	96	0
TAP	104	192	0
STR	105	0	0
SI_	105	0	0	96	288	3
STR	105	0	7
SI_	105	0	7	96	288	4
THO	107	0	0	384	C	1	L1

T_REC_TAP	92
T_REC_BRK	4
T_REC_XTP	4
T_REC_HLD	8
T_REC_XHO	0
T_REC_STR	7
T_REC_BST	0
T_REC_XST	0
T_REC_TTP	13
T_REC_THO	2
T_REC_SLD	7
T_REC_ALL	137
T_NUM_TAP	116
T_NUM_BRK	4
T_NUM_HLD	10
T_NUM_SLD	7
T_NUM_ALL	137
T_JUDGE_TAP	120
T_JUDGE_HLD	96
T_JUDGE_SLD	7
T_JUDGE_ALL	223
TTM_EACHPAIRS	5
TTM_SCR_TAP	58000
TTM_SCR_BRK	10400
TTM_SCR_HLD	10000
TTM_SCR_SLD	10500
TTM_SCR_ALL	88900
TTM_SCR_S	85850
TTM_SCR_SS	88500
TTM_RAT_ACV	10045

