VERSION	0.00.00	1.03.00
FES_MODE	0
BPM_DEF	138.000	138.000	138.000	138.000
MET_DEF	4	4
RESOLUTION	384
CLK_DEF	384
COMPATIBLE_CODE	MA2

BPM	0	0	138.000
MET	0	0	4	4
CLK	0	0
CLK	0	96
CLK	0	192
CLK	0	288

TAP	1	144	3
TAP	1	168	4
TAP	1	192	3
TAP	1	264	4
TAP	1	336	3
TAP	2	0	4
HLD	2	0	5	672
TAP	2	96	2
TAP	2	288	2
TAP	3	96	3
TAP	3	288	3
HLD	4	0	2	672
TAP	4	0	3
TAP	4	96	5
TAP	4	288	5
TAP	5	96	4
TAP	5	288	4
HLD	6	0	3	288
TAP	6	0	5
TAP	6	96	5
TAP	6	192	5
TAP	6	288	5
TAP	7	0	2
HLD	7	0	4	96
TAP	7	96	2
HLD	7	192	4	96
TAP	7	192	5
TAP	7	288	5
TAP	8	0	2
HLD	8	0	3	288
TAP	8	96	2
TAP	8	192	2
TAP	8	288	2
TAP	9	0	3
TAP	9	24	4
TAP	9	48	3
TAP	9	72	4
TAP	9	96	3
TAP	9	120	4
TAP	9	144	3
TAP	9	168	4
TTP	9	192	0	C	1	M1
HLD	10	0	0	96
STR	10	0	5
SI_	10	0	5	96	48	1
BRK	10	96	5
TAP	10	192	2
TAP	10	216	3
TAP	10	264	1
TAP	10	264	4
TAP	10	336	6
TAP	11	0	4
TAP	11	0	5
TAP	11	48	3
TAP	11	96	2
TAP	11	96	4
TAP	11	144	1
TAP	11	192	0
TAP	11	192	7
TAP	11	240	1
TAP	11	240	6
TAP	11	264	1
TAP	11	264	6
TAP	12	0	3
TAP	12	0	4
TAP	12	48	5
TAP	12	96	4
TAP	12	96	6
TAP	12	144	7
TAP	12	192	3
TAP	12	192	4
TAP	12	240	2
TAP	12	288	0
STR	12	288	1
SXL	12	288	1	96	96	1
TAP	12	336	7
TAP	13	0	6
TAP	13	48	5
HLD	13	96	6	72
TAP	13	144	0
TAP	13	168	0
XTP	13	216	3
XTP	13	216	4
BRK	13	288	2
BRK	13	288	7
TAP	14	0	2
TAP	14	0	6
TAP	14	48	3
TAP	14	96	4
TAP	14	144	5
HLD	14	192	6	48
HLD	14	192	7	48
TAP	14	264	0
TAP	14	264	5
TAP	14	336	6
TAP	15	0	4
TAP	15	0	5
TAP	15	48	2
TAP	15	96	1
TAP	15	96	3
TAP	15	144	0
TAP	15	144	7
TAP	15	192	0
TAP	15	192	7
TAP	15	240	1
TAP	15	240	6
TAP	15	264	1
TAP	15	264	6
TAP	16	0	3
TAP	16	0	4
TAP	16	48	2
TAP	16	96	1
TAP	16	96	3
TAP	16	144	0
TAP	16	192	2
TAP	16	192	4
TAP	16	240	5
TAP	16	288	4
TAP	16	288	6
TAP	16	336	7
STR	17	0	2
SI_	17	0	2	96	48	7
STR	17	0	6
SI_	17	0	6	96	48	3
XTP	17	96	2
XTP	17	96	6
BRK	17	192	2
BRK	17	192	6
TAP	18	0	1
TAP	18	0	3
TAP	18	48	3
TAP	18	72	2
TAP	18	96	3
TAP	18	120	1
TAP	18	192	4
TAP	18	192	6
TAP	18	240	4
TAP	18	264	5
TAP	18	288	4
TAP	18	312	6
TAP	19	0	1
TAP	19	0	3
TAP	19	48	3
TAP	19	72	2
TAP	19	96	3
TAP	19	120	1
TAP	19	192	4
TAP	19	192	6
TAP	19	240	5
TAP	19	288	1
TAP	19	288	3
TAP	19	336	2
TAP	20	0	6
TAP	20	0	7
TAP	20	48	7
TAP	20	72	6
TAP	20	96	7
TAP	20	120	5
TAP	20	192	0
TAP	20	192	1
TAP	20	240	0
TAP	20	264	1
TAP	20	288	0
TAP	20	312	2
TAP	21	0	6
TAP	21	0	7
TAP	21	48	7
TAP	21	72	6
TAP	21	96	7
TAP	21	120	5
XTP	21	192	3
XTP	21	192	4
XTP	21	240	0
XTP	21	240	7
BRK	21	288	1
BRK	21	288	6
STR	22	0	5
SI_	22	0	5	96	96	1
TAP	22	48	5
TAP	22	96	4
TAP	22	144	3
HLD	22	192	2	72
TAP	22	264	3
TAP	22	336	2
STR	23	0	2
SI_	23	0	2	96	96	6
TAP	23	48	2
TAP	23	96	3
TAP	23	144	4
HLD	23	192	5	72
TAP	23	264	4
TAP	23	336	5
STR	24	0	5
SI_	24	0	5	96	96	1
TAP	24	48	5
TAP	24	96	4
TAP	24	144	3
HLD	24	192	2	72
HLD	24	264	3	72
TAP	24	336	4
HLD	25	0	6	72
HLD	25	72	5	72
TAP	25	144	4
BRK	25	192	3
BRK	25	192	6
STR	26	0	1
SI_	26	0	1	96	96	6
TAP	26	48	1
TAP	26	96	3
TAP	26	144	4
HLD	26	192	5	72
TAP	26	264	4
TAP	26	336	4
TAP	26	336	5
STR	27	0	6
SI_	27	0	6	96	96	1
TAP	27	48	6
TAP	27	96	4
TAP	27	144	3
HLD	27	192	2	72
TAP	27	264	3
TAP	27	336	2
TAP	27	336	3
STR	28	0	1
SI_	28	0	1	96	96	6
TAP	28	48	1
TAP	28	96	3
TAP	28	144	4
HLD	28	192	5	72
HLD	28	264	4	72
TAP	28	336	3
HLD	29	0	1	72
HLD	29	72	2	72
TAP	29	144	3
XTP	29	192	2
XTP	29	192	6
BRK	29	288	0
BRK	29	288	4
STR	30	0	6
SCL	30	0	6	96	192	3
TTP	30	96	4	B	0	M1
TTP	30	192	0	C	0	M1
TTP	30	288	0	B	0	M1
STR	31	0	1
SCR	31	0	1	96	192	4
TTP	31	96	3	B	0	M1
TTP	31	192	0	C	0	M1
TTP	31	288	7	B	0	M1
TAP	32	0	3
HLD	32	0	6	96
TAP	32	96	5
HLD	32	192	1	96
TAP	32	192	4
TAP	32	288	2
TTP	33	0	4	E	0	M1
TTP	33	96	3	E	0	M1
TTP	33	96	5	E	0	M1
TTP	33	192	0	C	0	M1
TTP	33	192	1	B	0	M1
TTP	33	192	6	B	0	M1
STR	34	0	0
SCR	34	0	0	96	192	4
TTP	34	96	5	B	0	M1
TTP	34	96	6	B	0	M1
TTP	34	192	0	C	0	M1
TTP	34	288	1	B	0	M1
TTP	34	288	2	B	0	M1
STR	35	0	7
SCL	35	0	7	96	192	3
TTP	35	96	1	B	0	M1
TTP	35	96	2	B	0	M1
TTP	35	192	0	C	0	M1
TTP	35	288	5	B	0	M1
TTP	35	288	6	B	0	M1
HLD	36	0	2	96
TAP	36	0	7
TAP	36	96	3
TAP	36	192	0
HLD	36	192	5	96
TAP	36	288	4
TAP	37	0	4
TAP	37	0	6
TAP	37	72	3
TAP	37	72	4
TAP	37	144	1
TAP	37	144	3
STR	37	192	0
SI_	37	192	0	96	48	4
STR	37	192	7
SI_	37	192	7	96	48	3
XTP	37	288	0
XTP	37	288	7
TAP	38	0	0
TAP	38	0	7
TAP	38	72	4
TAP	38	72	6
TAP	38	144	1
TAP	38	144	3
XTP	38	192	3
XTP	38	192	4
XTP	38	240	3
XTP	38	240	4
BRK	38	288	1
BRK	38	288	6
STR	39	0	2
SI_	39	0	2	96	48	6
HLD	39	0	7	96
BRK	39	96	2
TAP	39	192	5
TAP	39	216	4
TAP	39	264	3
TAP	39	264	6
TAP	39	336	1
TAP	40	0	2
TAP	40	0	3
TAP	40	48	4
TAP	40	96	3
TAP	40	96	5
TAP	40	144	6
TAP	40	192	0
TAP	40	192	7
TAP	40	240	1
TAP	40	240	6
TAP	40	264	1
TAP	40	264	6
TAP	41	0	3
TAP	41	0	4
TAP	41	48	2
TAP	41	96	1
TAP	41	96	3
TAP	41	144	0
TAP	41	192	3
TAP	41	192	4
TAP	41	240	5
STR	41	288	6
SXR	41	288	6	96	96	6
TAP	41	288	7
TAP	41	336	0
TAP	42	0	1
TAP	42	48	2
HLD	42	96	1	72
TAP	42	144	7
TAP	42	168	7
XTP	42	216	3
XTP	42	216	4
BRK	42	288	0
BRK	42	288	5
TAP	43	0	6
TAP	43	0	7
TAP	43	48	5
TAP	43	96	3
TAP	43	96	4
TAP	43	144	2
HLD	43	192	0	48
HLD	43	192	1	48
TAP	43	264	2
TAP	43	264	7
TAP	43	336	1
TAP	44	0	2
TAP	44	0	3
TAP	44	48	5
TAP	44	96	4
TAP	44	96	6
TAP	44	144	0
TAP	44	144	7
TAP	44	192	1
TAP	44	192	6
TAP	44	240	2
TAP	44	240	5
TAP	44	264	2
TAP	44	264	5
TAP	45	0	0
HLD	45	0	1	144
TAP	45	48	7
TAP	45	96	6
TAP	45	144	5
TAP	45	192	3
HLD	45	192	4	144
TAP	45	240	2
TAP	45	288	1
TAP	45	336	0
XST	46	0	0
SCR	46	0	0	96	48	3
XST	46	0	4
SCR	46	0	4	96	48	7
XST	46	96	0
SI_	46	96	0	96	48	5
XST	46	96	4
SV_	46	96	4	96	48	1
XTP	46	192	0
XTP	46	192	4
BRK	46	288	0
BRK	46	288	4
STR	47	0	5
SI_	47	0	5	96	48	0
HLD	47	0	7	96
BRK	47	96	5
TAP	47	192	2
TAP	47	192	3
TAP	47	216	2
TAP	47	216	3
TAP	47	264	1
TAP	47	264	4
TAP	47	336	5
TAP	48	0	3
TAP	48	0	4
TAP	48	48	2
TAP	48	96	1
TAP	48	96	3
TAP	48	144	0
TAP	48	192	6
TAP	48	192	7
TAP	48	240	0
TAP	48	240	5
TAP	48	264	0
TAP	48	264	5
TAP	49	0	2
TAP	49	0	5
TAP	49	48	4
TAP	49	48	6
TAP	49	96	2
TAP	49	96	5
TAP	49	144	1
TAP	49	144	3
TAP	49	192	2
TAP	49	192	5
TAP	49	240	4
TAP	49	240	7
TAP	49	288	2
TAP	49	288	5
TAP	49	336	0
TAP	49	336	3
TAP	50	0	2
STR	50	0	5
SI_	50	0	5	96	48	1
TAP	50	48	4
TAP	50	48	7
TAP	50	96	2
TAP	50	96	5
TAP	50	144	0
TAP	50	168	0
XTP	50	216	2
XTP	50	216	7
BRK	50	288	0
BRK	50	288	5
TAP	51	0	6
TAP	51	0	7
TAP	51	48	5
TAP	51	96	3
TAP	51	96	4
TAP	51	144	2
TAP	51	192	0
TAP	51	192	1
TAP	51	240	2
TAP	51	240	7
TAP	51	264	2
TAP	51	264	7
TAP	51	336	0
TAP	52	0	1
TAP	52	0	7
TAP	52	48	2
TAP	52	96	3
TAP	52	96	4
TAP	52	144	5
TAP	52	192	6
TAP	52	192	7
TAP	52	240	0
TAP	52	240	5
TAP	52	264	0
TAP	52	264	5
TAP	53	0	4
STR	53	0	5
SXL	53	0	5	96	96	3
TAP	53	48	3
TAP	53	96	2
TAP	53	144	1
STR	53	192	2
SXR	53	192	2	96	96	4
TAP	53	240	4
TAP	53	288	5
TAP	53	336	6
TAP	54	0	7
TAP	54	48	2
TAP	54	48	6
STR	54	96	1
SI_	54	96	1	96	48	4
STR	54	96	5
SI_	54	96	5	96	48	0
XTP	54	192	1
XTP	54	192	5
BRK	54	288	2
BRK	54	288	6
TTP	55	0	3	B	0	M1
TTP	55	0	4	B	0	M1
TAP	55	48	1
TAP	55	72	0
TAP	55	96	2
TAP	55	120	7
TTP	55	192	3	B	0	M1
TTP	55	192	4	B	0	M1
TAP	55	240	6
TAP	55	264	7
TAP	55	288	5
TAP	55	312	0
TTP	56	0	3	B	0	M1
TTP	56	0	4	B	0	M1
TAP	56	48	1
TAP	56	72	0
TAP	56	96	2
TAP	56	120	7
TAP	56	192	4
TAP	56	192	6
TAP	56	240	5
TAP	56	288	1
TAP	56	288	3
TAP	56	336	2
TTP	57	0	0	E	0	M1
TTP	57	0	6	E	0	M1
TTP	57	0	6	B	0	M1
TTP	57	0	7	B	0	M1
TAP	57	48	2
TAP	57	72	3
TAP	57	96	1
TAP	57	120	4
TTP	57	192	0	E	0	M1
TTP	57	192	0	B	0	M1
TTP	57	192	1	B	0	M1
TTP	57	192	2	E	0	M1
TAP	57	240	5
TAP	57	264	4
TAP	57	288	6
TAP	57	312	3
TTP	58	0	0	E	0	M1
TTP	58	0	6	E	0	M1
TTP	58	0	6	B	0	M1
TTP	58	0	7	B	0	M1
TAP	58	48	2
TAP	58	72	3
TAP	58	96	1
TAP	58	120	4
TAP	58	192	4
TAP	58	192	6
TAP	58	240	5
TAP	58	288	1
TAP	58	288	3
TAP	58	336	2
XST	59	0	0
SCR	59	0	0	96	576	7
THO	59	0	0	672	C	1	M1
XTP	61	0	0
XST	61	0	7
SCL	61	0	7	96	192	3
TAP	62	0	5
TAP	62	48	6
TAP	62	96	7
TAP	62	144	0
TAP	62	192	1
TAP	62	240	2
TAP	62	288	4
TAP	62	312	3
TTP	62	360	0	C	0	M1
TTP	62	360	0	E	0	M1
TTP	62	360	4	E	0	M1

T_REC_TAP	377
T_REC_BRK	23
T_REC_XTP	25
T_REC_HLD	33
T_REC_XHO	0
T_REC_STR	24
T_REC_BST	0
T_REC_XST	6
T_REC_TTP	44
T_REC_THO	1
T_REC_SLD	30
T_REC_ALL	563
T_NUM_TAP	476
T_NUM_BRK	23
T_NUM_HLD	34
T_NUM_SLD	30
T_NUM_ALL	563
T_JUDGE_TAP	499
T_JUDGE_HLD	110
T_JUDGE_SLD	30
T_JUDGE_ALL	639
TTM_EACHPAIRS	137
TTM_SCR_TAP	238000
TTM_SCR_BRK	59800
TTM_SCR_HLD	34000
TTM_SCR_SLD	45000
TTM_SCR_ALL	376800
TTM_SCR_S	363300
TTM_SCR_SS	374500
TTM_RAT_ACV	10061

