VERSION	0.00.00	1.03.00
FES_MODE	0
BPM_DEF	138.000	138.000	138.000	138.000
MET_DEF	4	4
RESOLUTION	384
CLK_DEF	384
COMPATIBLE_CODE	MA2

BPM	0	0	138.000
MET	0	0	4	4
CLK	0	0
CLK	0	96
CLK	0	192
CLK	0	288

HLD	2	0	2	672
TAP	2	96	3
TAP	2	288	3
TAP	3	96	4
TAP	3	288	4
HLD	4	0	5	672
TAP	4	96	4
TAP	4	288	4
TAP	5	96	3
TAP	5	288	3
HLD	6	0	2	288
TAP	6	96	3
TAP	6	192	3
TAP	6	288	3
HLD	7	0	5	288
TAP	7	96	4
TAP	7	192	4
TAP	7	288	4
HLD	8	0	2	96
TAP	8	48	3
TAP	8	96	3
HLD	8	192	5	96
TAP	8	240	4
TAP	8	288	4
TAP	9	0	3
TAP	9	0	4
TAP	9	48	3
TAP	9	48	4
TAP	9	96	2
TAP	9	96	5
XTP	9	192	1
XTP	9	192	6
BRK	10	0	6
BRK	10	0	7
BRK	10	96	2
BRK	10	96	5
TAP	10	192	0
STR	10	192	1
SI_	10	192	1	96	48	4
TAP	11	0	6
TAP	11	48	6
STR	11	96	4
SUR	11	96	4	96	96	1
HLD	12	0	6	96
TAP	12	48	4
TAP	12	96	4
HLD	12	192	1	96
TAP	12	240	3
TAP	12	288	3
TAP	13	0	0
TAP	13	0	7
HLD	13	96	1	72
HLD	13	96	6	72
TAP	13	288	3
TAP	13	288	4
TAP	14	0	0
TAP	14	0	1
TAP	14	96	2
TAP	14	96	5
STR	14	192	6
SI_	14	192	6	96	48	3
TAP	14	192	7
TAP	15	0	1
TAP	15	48	1
STR	15	96	3
SUL	15	96	3	96	96	6
HLD	16	0	1	96
TAP	16	48	2
TAP	16	96	2
HLD	16	192	6	96
TAP	16	240	5
STR	16	288	5
SCR	16	288	5	96	144	2
BRK	17	192	1
BRK	17	192	6
TAP	18	0	4
TAP	18	96	0
TAP	18	96	6
TAP	18	192	3
TAP	18	288	1
TAP	18	288	7
TAP	19	0	4
TAP	19	96	0
TAP	19	96	6
TAP	19	192	3
TAP	19	288	1
TAP	19	288	6
TAP	20	0	0
TAP	20	96	2
TAP	20	96	4
TAP	20	192	7
TAP	20	288	3
TAP	20	288	5
TAP	21	0	0
TAP	21	96	2
TAP	21	96	4
BRK	21	192	1
BRK	21	192	5
HLD	22	0	2	96
TAP	22	48	3
STR	22	96	3
SCR	22	96	3	96	96	5
HLD	23	0	5	96
TAP	23	48	4
STR	23	96	4
SCL	23	96	4	96	96	2
HLD	24	0	2	288
TAP	24	48	3
TAP	24	96	3
TAP	24	192	1
TAP	24	288	0
HLD	25	0	7	96
TAP	25	48	0
TAP	25	96	0
BRK	25	192	1
BRK	25	192	5
HLD	26	0	3	192
TTP	26	96	3	B	0	M1
TTP	26	192	0	C	0	M1
TTP	26	288	6	B	0	M1
HLD	27	0	4	192
TTP	27	96	4	B	0	M1
TTP	27	192	0	C	0	M1
TTP	27	288	1	B	0	M1
HLD	28	0	3	192
TTP	28	96	3	B	0	M1
TTP	28	192	0	C	0	M1
TTP	28	288	6	B	0	M1
TAP	29	0	7
TAP	29	48	7
TAP	29	96	1
BRK	29	192	2
BRK	29	192	6
HLD	30	0	4	72
HLD	30	72	3	72
TAP	30	144	2
TAP	30	192	2
TAP	30	288	0
TAP	30	288	7
HLD	31	0	3	72
HLD	31	72	4	72
TAP	31	144	5
TAP	31	192	5
TAP	31	288	0
TAP	31	288	7
TAP	32	0	1
TAP	32	48	1
TAP	32	96	3
TAP	32	192	6
TAP	32	240	6
TAP	32	288	4
TAP	33	0	3
TAP	33	0	4
TAP	33	96	0
TAP	33	96	7
BRK	33	192	1
BRK	33	192	6
HLD	34	0	4	72
HLD	34	72	2	72
TAP	34	144	0
STR	34	192	0
SI_	34	192	0	96	72	5
HLD	35	0	3	72
HLD	35	72	5	72
TAP	35	144	7
STR	35	192	7
SI_	35	192	7	96	72	2
TAP	36	0	5
TAP	36	48	5
TAP	36	96	7
TAP	36	192	2
TAP	36	240	2
TAP	36	288	0
XTP	37	0	0
XTP	37	0	7
XTP	37	72	0
XTP	37	72	7
XTP	37	144	1
XTP	37	144	6
XTP	37	192	1
XTP	37	192	6
TAP	37	288	3
TAP	37	288	4
XTP	38	0	4
XTP	38	0	5
XTP	38	72	2
XTP	38	72	3
XTP	38	144	1
XTP	38	144	6
BRK	38	192	1
BRK	38	192	6
TTP	39	0	6	B	0	M1
TTP	39	0	7	B	0	M1
TTP	39	96	0	B	0	M1
TTP	39	96	1	B	0	M1
TTP	39	192	0	C	1	M1
TTP	39	192	2	B	0	M1
TTP	39	192	5	B	0	M1
TAP	40	0	5
TAP	40	48	5
STR	40	96	0
SUL	40	96	0	96	96	3
HLD	41	0	6	96
TAP	41	48	4
TAP	41	96	4
HLD	41	192	1	96
TAP	41	240	3
TAP	41	288	3
TAP	42	0	4
TAP	42	48	3
HLD	42	96	2	72
XTP	42	144	7
XTP	42	168	7
TAP	42	288	2
TAP	42	288	3
TTP	43	0	4	B	0	M1
TTP	43	0	5	B	0	M1
TTP	43	96	2	B	0	M1
TTP	43	96	3	B	0	M1
TTP	43	192	0	C	1	M1
TTP	43	192	1	B	0	M1
TTP	43	192	6	B	0	M1
TAP	44	0	1
TAP	44	48	1
STR	44	96	3
SUR	44	96	3	96	96	0
HLD	45	0	1	96
TAP	45	48	0
TAP	45	96	7
HLD	45	192	6	96
TAP	45	240	7
STR	45	288	0
SCR	45	288	0	96	144	7
BRK	46	192	1
BRK	46	192	6
TTP	47	0	6	B	0	M1
TTP	47	0	7	E	0	M1
TTP	47	0	7	B	0	M1
TTP	47	96	0	B	0	M1
TTP	47	96	1	B	0	M1
TTP	47	96	1	E	0	M1
TTP	47	192	0	C	1	M1
TTP	47	192	3	B	0	M1
TTP	47	192	4	B	0	M1
TAP	48	0	0
TAP	48	48	0
STR	48	96	5
SUR	48	96	5	96	96	2
HLD	49	0	1	96
TAP	49	48	0
TAP	49	96	0
HLD	49	192	6	96
TAP	49	240	7
TAP	49	288	7
TAP	50	0	3
TAP	50	48	4
HLD	50	96	5	72
XTP	50	144	0
XTP	50	168	0
TAP	50	288	2
TAP	50	288	3
TTP	51	0	4	B	0	M1
TTP	51	0	5	B	0	M1
TTP	51	0	5	E	0	M1
TTP	51	96	2	B	0	M1
TTP	51	96	3	E	0	M1
TTP	51	96	3	B	0	M1
TTP	51	192	0	B	0	M1
TTP	51	192	0	C	1	M1
TTP	51	192	7	B	0	M1
TAP	52	0	7
TAP	52	48	7
STR	52	96	2
SUL	52	96	2	96	96	5
HLD	53	0	6	96
TAP	53	48	7
TAP	53	96	0
HLD	53	192	1	96
TAP	53	240	0
STR	53	288	7
SCL	53	288	7	96	96	4
SCR	53	288	7	96	96	2
BRK	54	192	1
BRK	54	192	6
TAP	55	0	2
TAP	55	48	2
TAP	55	96	1
TAP	55	96	7
TAP	55	192	5
TAP	55	240	5
TAP	55	288	0
TAP	55	288	6
TAP	56	0	2
TAP	56	48	2
TAP	56	96	1
TAP	56	96	7
TAP	56	192	5
TAP	56	240	5
TAP	56	288	0
TAP	56	288	6
TAP	57	0	1
TAP	57	48	1
TAP	57	96	2
TAP	57	96	4
TAP	57	192	6
TAP	57	240	6
TAP	57	288	3
TAP	57	288	5
TAP	58	0	1
TAP	58	48	1
TAP	58	96	2
TAP	58	96	4
XTP	58	192	1
XTP	58	192	6
THO	59	0	0	1512	C	0	M1
TTP	59	96	6	B	0	M1
TTP	59	288	7	B	0	M1
TTP	60	96	0	B	0	M1
TTP	60	288	1	B	0	M1
TTP	61	96	1	E	0	M1
TTP	61	288	0	E	0	M1
TTP	62	96	7	E	0	M1
TTP	62	288	6	E	0	M1

T_REC_TAP	163
T_REC_BRK	20
T_REC_XTP	22
T_REC_HLD	37
T_REC_XHO	0
T_REC_STR	15
T_REC_BST	0
T_REC_XST	0
T_REC_TTP	49
T_REC_THO	1
T_REC_SLD	16
T_REC_ALL	323
T_NUM_TAP	249
T_NUM_BRK	20
T_NUM_HLD	38
T_NUM_SLD	16
T_NUM_ALL	323
T_JUDGE_TAP	269
T_JUDGE_HLD	148
T_JUDGE_SLD	16
T_JUDGE_ALL	433
TTM_EACHPAIRS	50
TTM_SCR_TAP	124500
TTM_SCR_BRK	52000
TTM_SCR_HLD	38000
TTM_SCR_SLD	24000
TTM_SCR_ALL	238500
TTM_SCR_S	229450
TTM_SCR_SS	236500
TTM_RAT_ACV	10084

