VERSION	0.00.00	1.03.00
FES_MODE	0
BPM_DEF	138.000	138.000	138.000	138.000
MET_DEF	4	4
RESOLUTION	384
CLK_DEF	384
COMPATIBLE_CODE	MA2

BPM	0	0	138.000
MET	0	0	4	4

TAP	2	0	5
TAP	2	96	5
TAP	2	192	4
TAP	3	0	2
TAP	3	96	2
TAP	3	192	3
TAP	4	0	5
TAP	4	96	5
TAP	4	192	4
TAP	4	288	4
TAP	5	0	3
TAP	5	96	2
TAP	5	192	2
TAP	5	192	3
TAP	6	0	5
TAP	6	96	5
TAP	6	192	4
TAP	6	192	5
TAP	7	0	2
TAP	7	96	2
TAP	7	192	2
TAP	7	192	3
TAP	8	0	5
TAP	8	96	5
TAP	8	192	6
TAP	8	288	6
TAP	9	0	7
TAP	9	96	0
TAP	9	96	7
BRK	9	192	1
BRK	9	192	6
TAP	10	0	6
TAP	10	96	6
TAP	10	192	6
TAP	10	192	7
TAP	10	288	6
TAP	10	288	7
TAP	11	0	0
TAP	11	96	0
TAP	11	192	1
TAP	11	192	7
TAP	12	0	2
TAP	12	96	1
TAP	12	192	0
TAP	12	288	0
TAP	12	288	7
TAP	13	0	7
TAP	13	96	7
TAP	13	192	0
TAP	13	192	6
TAP	14	0	1
TAP	14	96	1
TAP	14	192	0
TAP	14	192	1
TAP	14	288	0
TAP	14	288	1
TAP	15	0	7
TAP	15	96	7
TAP	15	192	0
TAP	15	192	6
TAP	16	0	5
TAP	16	96	6
TAP	16	192	7
TAP	16	288	0
TAP	16	288	7
TAP	17	0	0
TAP	17	96	0
TAP	17	96	7
BRK	17	192	1
BRK	17	192	6
TTP	18	0	6	B	0	L1
TTP	18	192	0	C	0	L1
TTP	19	0	2	B	0	L1
TTP	19	192	1	B	0	L1
TTP	20	0	0	C	0	L1
TTP	20	192	5	B	0	L1
TTP	21	0	0	C	1	L1
HLD	22	0	5	192
TAP	22	192	4
TAP	22	288	3
HLD	23	0	2	192
TAP	23	192	3
TAP	23	288	4
HLD	24	0	5	192
TAP	24	192	4
TAP	24	288	3
TAP	25	0	2
TAP	25	96	2
TAP	25	192	1
TAP	25	192	3
HLD	26	0	2	192
TAP	26	192	3
TAP	26	288	4
HLD	27	0	5	192
TAP	27	192	4
TAP	27	288	3
TAP	28	0	2
TAP	28	96	2
TAP	28	192	1
TAP	28	288	1
TAP	29	0	0
TAP	29	96	7
XTP	29	192	1
XTP	29	192	6
STR	30	0	7
SI_	30	0	7	96	192	4
STR	31	0	3
SI_	31	0	3	96	192	0
STR	32	0	7
SCL	32	0	7	96	192	4
TAP	33	0	3
TAP	33	96	3
BRK	33	192	3
STR	34	0	3
SI_	34	0	3	96	192	0
STR	35	0	7
SI_	35	0	7	96	192	4
STR	36	0	3
SCL	36	0	3	96	192	0
TAP	37	0	7
TAP	37	96	7
BRK	37	192	7
TAP	38	0	6
TAP	38	96	0
TAP	38	96	7
BRK	38	192	1
BRK	38	192	6
TAP	39	0	1
TAP	39	96	0
TAP	39	96	1
TAP	39	192	1
TAP	39	288	0
TAP	39	288	1
HLD	40	0	2	96
TAP	40	96	3
XTP	40	192	1
XTP	40	192	4
HLD	41	0	2	96
TAP	41	96	3
TAP	41	192	4
HLD	41	288	5	96
TAP	42	0	4
TAP	42	96	4
XTP	42	192	4
XTP	42	192	6
TAP	43	0	6
TAP	43	96	6
TAP	43	96	7
TAP	43	192	6
TAP	43	288	6
TAP	43	288	7
HLD	44	0	5	96
TAP	44	96	4
XTP	44	192	3
XTP	44	192	6
HLD	45	0	5	96
TAP	45	96	4
TAP	45	192	3
TAP	45	288	2
TAP	46	0	1
TAP	46	96	0
BRK	46	192	1
BRK	46	192	7
TAP	47	0	1
TAP	47	96	0
TAP	47	96	1
TAP	47	192	6
TAP	47	288	6
TAP	47	288	7
HLD	48	0	5	96
TAP	48	96	4
TAP	48	192	3
TAP	48	192	6
HLD	49	0	5	96
TAP	49	96	4
TAP	49	192	3
HLD	49	288	2	96
TAP	50	0	3
TAP	50	96	2
TAP	50	96	3
XTP	50	192	1
XTP	50	192	3
TAP	51	0	6
TAP	51	96	6
TAP	51	96	7
TAP	51	192	1
TAP	51	288	0
TAP	51	288	1
HLD	52	0	2	96
TAP	52	96	3
TAP	52	192	1
TAP	52	192	4
HLD	53	0	2	96
TAP	53	96	3
TAP	53	192	4
HLD	53	288	5	96
TAP	54	0	4
TAP	54	96	6
TAP	54	96	7
BRK	54	192	0
BRK	54	192	5
STR	55	0	5
SCR	55	0	5	96	192	0
STR	56	0	1
SCR	56	0	1	96	192	4
STR	57	0	5
SI_	57	0	5	96	192	0
TAP	58	0	1
TAP	58	96	1
BRK	58	192	1
TTP	59	0	1	B	0	L1
TTP	59	192	0	C	0	L1
TTP	60	0	5	B	0	L1
TTP	60	192	6	B	0	L1
TTP	61	0	0	C	0	L1
TTP	61	192	2	B	0	L1
THO	62	0	0	360	C	1	L1

T_REC_TAP	146
T_REC_BRK	13
T_REC_XTP	10
T_REC_HLD	16
T_REC_XHO	0
T_REC_STR	9
T_REC_BST	0
T_REC_XST	0
T_REC_TTP	13
T_REC_THO	1
T_REC_SLD	9
T_REC_ALL	217
T_NUM_TAP	178
T_NUM_BRK	13
T_NUM_HLD	17
T_NUM_SLD	9
T_NUM_ALL	217
T_JUDGE_TAP	191
T_JUDGE_HLD	50
T_JUDGE_SLD	9
T_JUDGE_ALL	250
TTM_EACHPAIRS	38
TTM_SCR_TAP	89000
TTM_SCR_BRK	33800
TTM_SCR_HLD	17000
TTM_SCR_SLD	13500
TTM_SCR_ALL	153300
TTM_SCR_S	147450
TTM_SCR_SS	152000
TTM_RAT_ACV	10085

