VERSION	0.00.00	1.03.00
FES_MODE	0
BPM_DEF	170.000	170.000	170.000	170.000
MET_DEF	4	4
RESOLUTION	384
CLK_DEF	384
COMPATIBLE_CODE	MA2

BPM	0	0	170.000
MET	0	0	4	4

TAP	1	0	3
TAP	1	0	4
TAP	1	48	3
TAP	1	96	2
TAP	1	96	5
TAP	1	192	4
TAP	1	216	3
BRK	1	288	1
BRK	1	288	6
TAP	2	0	2
TAP	2	48	2
STR	2	96	1
SI_	2	96	1	96	48	4
TAP	2	96	3
TAP	2	192	5
TAP	2	288	2
TAP	2	288	7
TAP	3	0	5
TAP	3	48	5
TAP	3	96	4
STR	3	96	6
SI_	3	96	6	96	48	3
TAP	3	192	2
TAP	3	288	0
TAP	3	288	5
TAP	4	0	2
TAP	4	48	2
STR	4	96	1
SI_	4	96	1	96	48	4
TAP	4	96	3
TAP	4	192	5
TAP	4	288	1
STR	4	288	6
SI_	4	288	6	96	48	1
STR	5	0	2
SI_	5	0	2	96	48	7
STR	5	96	6
SI_	5	96	6	96	48	3
TAP	5	192	0
BRK	5	288	1
BRK	5	288	5
TAP	6	0	6
TAP	6	48	6
TAP	6	96	0
STR	6	96	5
SI_	6	96	5	96	48	0
TAP	6	192	1
TAP	6	288	3
TAP	6	288	6
TAP	7	0	1
TAP	7	48	1
STR	7	96	2
SI_	7	96	2	96	48	7
TAP	7	96	7
TAP	7	192	6
TAP	7	288	1
TAP	7	288	4
TAP	8	0	6
TAP	8	48	6
TAP	8	96	0
STR	8	96	5
SI_	8	96	5	96	48	0
TAP	8	192	1
TAP	8	288	1
TAP	8	288	6
TAP	9	0	2
TAP	9	0	4
TAP	9	48	5
TAP	9	96	4
TAP	9	96	6
TAP	9	192	3
TAP	9	216	4
TAP	9	240	3
BRK	9	288	1
BRK	9	288	6
TAP	10	0	2
TAP	10	0	4
TAP	10	96	3
TAP	10	96	5
TAP	10	192	6
TAP	10	240	6
TAP	10	288	0
HLD	10	336	0	192
TTP	11	48	7	E	0	M1
TTP	11	48	7	B	0	M1
TTP	11	144	3	B	0	M1
TTP	11	144	3	E	0	M1
TAP	11	240	0
TAP	11	240	1
TAP	11	336	1
HLD	12	0	1	96
TAP	12	96	0
HLD	12	144	0	96
TAP	12	240	2
HLD	12	336	7	192
TTP	13	48	0	B	0	M1
TTP	13	48	1	E	0	M1
TTP	13	144	4	B	0	M1
TTP	13	144	5	E	0	M1
TAP	13	240	6
TAP	13	240	7
TAP	13	336	6
HLD	14	0	6	96
TAP	14	96	4
TAP	14	192	2
TAP	14	192	3
TAP	14	288	4
HLD	14	336	4	192
TTP	15	48	3	E	0	M1
TTP	15	48	3	B	0	M1
TTP	15	144	0	B	0	M1
TTP	15	144	1	E	0	M1
TAP	15	240	4
TAP	15	240	5
TAP	15	336	2
HLD	16	0	2	96
TAP	16	96	3
HLD	16	144	3	96
STR	16	240	4
SXL	16	240	4	96	240	7
SXR	16	240	4	96	240	1
TAP	16	288	4
BRK	17	288	7
STR	18	0	0
SCR	18	0	0	96	96	4
STR	18	96	4
SCR	18	96	4	96	96	0
STR	18	192	0
SCR	18	192	0	96	96	4
STR	18	288	4
SI_	18	288	4	96	96	0
STR	19	0	0
SCL	19	0	0	96	96	4
STR	19	96	4
SCL	19	96	4	96	96	0
TAP	19	192	0
BRK	19	288	6
STR	20	0	7
SCL	20	0	7	96	96	3
STR	20	96	3
SCL	20	96	3	96	96	7
STR	20	192	7
SCL	20	192	7	96	96	3
STR	20	288	3
SI_	20	288	3	96	96	7
STR	21	0	7
SCR	21	0	7	96	96	3
STR	21	96	3
SCR	21	96	3	96	96	7
TAP	21	192	7
BRK	21	288	1
TAP	22	0	4
TAP	22	0	5
TAP	22	96	2
TAP	22	96	3
TAP	22	192	1
TAP	22	240	1
TAP	22	288	7
HLD	22	336	7	192
TTP	23	48	1	B	0	M1
TTP	23	48	1	E	0	M1
TTP	23	144	5	E	0	M1
TTP	23	144	5	B	0	M1
TAP	23	240	3
TAP	23	240	4
TAP	23	336	2
HLD	24	0	2	96
TAP	24	96	1
HLD	24	144	1	96
TAP	24	240	0
TAP	24	288	0
STR	24	336	7
SUL	24	336	7	96	144	4
BRK	25	288	1
BRK	25	288	6
TAP	26	0	3
HLD	26	0	4	192
TTP	26	144	4	B	0	M1
TTP	26	192	0	C	0	M1
HLD	27	0	3	192
TAP	27	0	4
TTP	27	144	3	B	0	M1
TTP	27	192	0	C	0	M1
TAP	28	0	3
HLD	28	0	4	192
TTP	28	144	5	B	0	M1
TTP	28	192	0	C	0	M1
HLD	29	0	3	192
TAP	29	0	4
TTP	29	144	2	B	0	M1
TTP	29	192	0	C	0	M1
TTP	30	0	4	E	0	M1
TTP	30	96	5	E	0	M1
TTP	30	192	6	E	0	M1
TTP	30	288	7	E	0	M1
TTP	31	0	0	E	0	M1
TTP	31	96	1	E	0	M1
TTP	31	192	2	E	0	M1
TTP	31	288	3	E	0	M1
THO	32	0	0	384	C	0	M1
TAP	33	144	1
TAP	33	192	1
STR	33	240	2
SCR	33	240	2	96	120	7
TAP	33	264	3
TAP	33	288	1
TAP	34	144	6
TAP	34	192	6
STR	34	240	5
SCL	34	240	5	96	120	0
TAP	34	264	4
TAP	34	288	6
TAP	35	144	0
TAP	35	192	1
HLD	35	192	3	96
TAP	35	288	7
TAP	35	336	7
STR	36	0	1
SI_	36	0	1	96	48	5
TAP	36	0	5
STR	36	96	4
SI_	36	96	4	96	48	7
STR	36	192	0
SI_	36	192	0	96	48	4
TAP	36	288	7
BRK	37	0	2
BRK	37	0	6
BRK	37	48	2
BRK	37	48	6
TAP	37	144	6
TAP	37	192	6
STR	37	240	5
SCL	37	240	5	96	120	0
TAP	37	264	4
TAP	37	288	6
TAP	38	144	1
TAP	38	192	1
STR	38	240	2
SCR	38	240	2	96	120	7
TAP	38	264	3
TAP	38	288	1
HLD	39	144	0	192
TAP	39	240	7
TAP	39	288	6
TAP	39	336	5
TAP	40	0	1
TAP	40	0	4
TAP	40	96	3
TAP	40	96	5
STR	40	144	2
SCL	40	144	2	96	48	7
STR	40	144	4
SCR	40	144	4	96	48	7
TAP	40	240	2
TAP	40	240	4
BRK	40	336	6
BRK	40	336	7
BRK	41	48	2
BRK	41	48	5
TAP	41	144	6
TAP	41	192	6
STR	41	240	5
SCL	41	240	5	96	120	0
TAP	41	264	4
TAP	41	288	6
TAP	42	144	1
TAP	42	192	1
STR	42	240	2
SCR	42	240	2	96	120	7
TAP	42	264	3
TAP	42	288	1
TAP	43	144	7
HLD	43	192	4	96
TAP	43	192	6
TAP	43	288	0
TAP	43	336	0
TAP	44	0	2
STR	44	0	6
SI_	44	0	6	96	48	2
STR	44	96	3
SI_	44	96	3	96	48	0
STR	44	192	7
SI_	44	192	7	96	48	3
TAP	44	288	0
BRK	45	0	1
BRK	45	0	5
BRK	45	48	1
BRK	45	48	5
TAP	45	144	2
TAP	45	144	3
HLD	45	192	1	144
TAP	45	192	4
TAP	45	288	0
TAP	45	336	0
TAP	46	48	6
TAP	46	48	7
TAP	46	144	4
TAP	46	144	5
TAP	46	192	3
HLD	46	192	6	144
TAP	46	288	7
HLD	46	336	7	96
HLD	47	48	0	96
HLD	47	144	2	96
TAP	47	240	5
TAP	47	288	5
TAP	47	336	7
TAP	48	48	2
TAP	48	96	2
TAP	48	144	0
TAP	48	240	1
STR	48	240	6
SCL	48	240	6	96	96	1
TAP	48	288	1
TAP	48	288	6
BRK	48	336	0
TAP	49	144	0
TAP	49	144	7
TAP	49	192	0
TAP	49	192	7
STR	49	240	6
SCR	49	240	6	96	120	3
TAP	49	264	7
TAP	49	288	5
TAP	50	144	3
TAP	50	144	4
TAP	50	192	3
TAP	50	192	4
STR	50	240	1
SCL	50	240	1	96	120	4
TAP	50	264	0
TAP	50	288	2
TAP	51	144	3
TAP	51	192	0
HLD	51	192	1	96
TAP	51	288	6
TAP	51	336	6
STR	52	0	2
SI_	52	0	2	96	48	6
TAP	52	0	5
STR	52	96	7
SI_	52	96	7	96	48	4
STR	52	192	3
SI_	52	192	3	96	48	7
TAP	52	288	4
BRK	53	0	1
BRK	53	0	5
BRK	53	48	1
BRK	53	48	5
TAP	53	144	0
TAP	53	144	7
TAP	53	192	0
TAP	53	192	7
STR	53	240	1
SCL	53	240	1	96	120	4
TAP	53	264	0
TAP	53	288	2
TAP	54	144	3
TAP	54	144	4
TAP	54	192	3
TAP	54	192	4
STR	54	240	6
SCR	54	240	6	96	120	3
TAP	54	264	7
TAP	54	288	5
HLD	55	144	3	192
TAP	55	240	4
TAP	55	288	5
TAP	55	336	6
TAP	56	0	2
TAP	56	0	7
TAP	56	96	0
TAP	56	96	6
STR	56	144	1
SUL	56	144	1	96	48	4
STR	56	144	7
SI_	56	144	7	96	48	4
TAP	56	240	1
TAP	56	240	7
BRK	56	336	3
BRK	56	336	5
BRK	57	48	1
BRK	57	48	6
TAP	57	144	3
TAP	57	144	4
STR	57	192	3
SI_	57	192	3	96	48	1
STR	57	192	4
SI_	57	192	4	96	48	0
BRK	57	288	3
BRK	57	288	4
TAP	58	0	0
TAP	58	0	1
TAP	58	48	1
TAP	58	96	2
TAP	58	96	7
TAP	58	144	2
STR	58	192	3
SI_	58	192	3	96	48	7
STR	58	192	4
SI_	58	192	4	96	48	6
BRK	58	288	3
BRK	58	288	4
TAP	59	0	6
TAP	59	0	7
TAP	59	48	6
TAP	59	96	0
TAP	59	96	5
TAP	59	144	5
HLD	59	192	3	96
TAP	59	288	7
TAP	59	336	7
XTP	60	0	0
XTP	60	0	6
TAP	60	48	6
XTP	60	96	1
XTP	60	96	5
TAP	60	144	1
XTP	60	192	2
XTP	60	192	4
TAP	60	240	4
XTP	60	288	3
XTP	60	288	4
TAP	60	336	3
BRK	61	0	1
BRK	61	0	6
BRK	61	48	1
BRK	61	48	6
TAP	61	144	4
TAP	61	144	5
TAP	61	192	3
HLD	61	192	6	144
TAP	61	288	7
TAP	61	336	7
TAP	62	48	0
TAP	62	48	1
TAP	62	144	2
TAP	62	144	3
HLD	62	192	1	144
TAP	62	192	4
TAP	62	288	0
HLD	62	336	0	96
HLD	63	48	7	96
HLD	63	144	5	96
TAP	63	240	2
TAP	63	288	1
TAP	63	336	0
TAP	63	336	7
TAP	64	48	5
TAP	64	96	6
TAP	64	144	0
TAP	64	144	7
TAP	64	240	3
TAP	64	288	2
TAP	64	336	0
TAP	64	336	1
TAP	65	48	4
TAP	65	96	5
TAP	65	144	6
TAP	65	144	7
STR	65	240	3
SCL	65	240	3	96	336	4
STR	65	240	4
SCR	65	240	4	96	336	3
TAP	65	288	3
TAP	65	288	4
THO	67	0	0	288	C	1	M1
TAP	68	0	5
TAP	68	48	5
TAP	68	96	4
STR	68	96	6
SI_	68	96	6	96	48	3
TAP	68	192	2
TTP	68	288	0	B	0	M1
TTP	68	288	6	B	0	M1
TTP	68	288	7	B	0	M1
TAP	69	0	2
TAP	69	48	2
STR	69	96	1
SI_	69	96	1	96	48	4
TAP	69	96	3
TAP	69	192	5
TTP	69	288	0	B	0	M1
TTP	69	288	1	B	0	M1
TTP	69	288	7	B	0	M1
TAP	70	0	5
TAP	70	48	5
TAP	70	96	4
STR	70	96	6
SI_	70	96	6	96	48	3
TAP	70	192	2
STR	70	288	1
SI_	70	288	1	96	48	6
TAP	70	288	6
STR	71	0	5
SI_	71	0	5	96	48	0
STR	71	96	1
SI_	71	96	1	96	48	4
TAP	71	192	7
BRK	71	288	2
BRK	71	288	6
TAP	72	0	1
TAP	72	48	1
STR	72	96	2
SI_	72	96	2	96	48	7
TAP	72	96	7
TAP	72	192	6
TTP	72	288	2	B	0	M1
TTP	72	288	3	B	0	M1
TTP	72	288	4	B	0	M1
TAP	73	0	6
TAP	73	48	6
TAP	73	96	0
STR	73	96	5
SI_	73	96	5	96	48	0
TAP	73	192	1
TTP	73	288	3	B	0	M1
TTP	73	288	4	B	0	M1
TTP	73	288	5	B	0	M1
TAP	74	0	1
TAP	74	48	1
STR	74	96	2
SI_	74	96	2	96	48	7
TAP	74	96	7
TAP	74	192	6
TAP	74	288	1
TAP	74	288	4
TAP	75	0	4
TAP	75	0	5
TAP	75	48	4
TAP	75	48	5
TAP	75	96	2
TAP	75	96	3
TAP	75	192	4
TAP	75	216	3
TAP	75	240	4
TAP	75	264	3
TAP	75	288	4
TAP	75	312	3
TAP	75	336	4
BST	76	0	1
SCR	76	0	1	96	672	7
BST	76	0	6
SCL	76	0	6	96	672	0

T_REC_TAP	288
T_REC_BRK	42
T_REC_XTP	8
T_REC_HLD	31
T_REC_XHO	0
T_REC_STR	62
T_REC_BST	2
T_REC_XST	0
T_REC_TTP	44
T_REC_THO	2
T_REC_SLD	65
T_REC_ALL	544
T_NUM_TAP	402
T_NUM_BRK	44
T_NUM_HLD	33
T_NUM_SLD	65
T_NUM_ALL	544
T_JUDGE_TAP	446
T_JUDGE_HLD	100
T_JUDGE_SLD	65
T_JUDGE_ALL	611
TTM_EACHPAIRS	111
TTM_SCR_TAP	201000
TTM_SCR_BRK	114400
TTM_SCR_HLD	33000
TTM_SCR_SLD	97500
TTM_SCR_ALL	445900
TTM_SCR_S	428300
TTM_SCR_SS	441500
TTM_RAT_ACV	10099

