VERSION	0.00.00	1.03.00
FES_MODE	0
BPM_DEF	170.000	170.000	170.000	170.000
MET_DEF	4	4
RESOLUTION	384
CLK_DEF	384
COMPATIBLE_CODE	MA2

BPM	0	0	170.000
MET	0	0	4	4

BRK	2	0	0
BRK	2	0	7
TAP	2	96	2
TAP	2	96	3
TAP	2	192	1
TAP	2	192	4
TAP	2	288	0
HLD	3	0	5	96
TAP	3	96	4
TAP	3	192	3
TAP	3	192	6
TAP	3	288	7
HLD	4	0	1	96
TAP	4	96	0
TAP	4	192	2
TAP	4	192	7
TAP	4	288	6
TAP	5	0	6
TAP	5	0	7
STR	5	96	0
SCR	5	96	0	96	96	4
TAP	5	96	5
HLD	6	0	5	96
TAP	6	96	4
TAP	6	192	3
TAP	6	192	6
TAP	6	288	7
HLD	7	0	2	96
TAP	7	96	3
TAP	7	192	1
TAP	7	192	4
TAP	7	288	0
HLD	8	0	6	96
TAP	8	96	7
TAP	8	192	0
TAP	8	192	5
TAP	8	288	1
TAP	9	0	0
TAP	9	0	1
TAP	9	96	2
STR	9	96	7
SCL	9	96	7	96	96	3
HLD	10	0	1	96
TAP	10	96	2
TAP	10	192	2
TAP	10	192	4
TAP	10	288	3
TAP	11	0	2
TAP	11	0	4
STR	11	96	1
SI_	11	96	1	96	96	5
TAP	11	96	5
TAP	11	288	7
TAP	12	0	6
TAP	12	96	4
TAP	12	96	6
TAP	12	192	5
TAP	12	288	3
TAP	12	288	5
TTP	13	0	4	B	0	M1
TTP	13	96	0	C	0	M1
TTP	13	192	0	B	0	M1
TAP	13	288	1
TAP	13	288	7
HLD	14	0	6	96
TAP	14	96	5
TAP	14	192	3
TAP	14	192	5
TAP	14	288	4
TAP	15	0	3
TAP	15	0	5
TAP	15	96	2
STR	15	96	6
SI_	15	96	6	96	96	2
TAP	15	288	0
HLD	16	0	1	96
TAP	16	96	0
HLD	16	192	6	96
TAP	16	288	7
STR	17	0	5
SCR	17	0	5	96	192	2
TAP	18	0	0
TAP	18	0	7
TAP	18	96	1
TAP	18	192	2
TAP	18	192	3
TAP	18	288	4
TAP	19	0	3
TAP	19	0	5
TAP	19	96	2
STR	19	96	6
SCL	19	96	6	96	96	3
TAP	19	288	2
TAP	20	0	0
TAP	20	0	1
TAP	20	96	6
TAP	20	96	7
TAP	20	192	4
TAP	20	192	5
TAP	20	288	2
TAP	20	288	3
TTP	21	0	2	E	0	M1
TTP	21	0	4	E	0	M1
TTP	21	96	1	E	0	M1
TTP	21	96	5	E	0	M1
TTP	21	192	0	E	0	M1
TTP	21	192	6	E	0	M1
TTP	21	288	0	C	0	M1
HLD	22	0	6	96
TAP	22	96	4
HLD	22	192	1	96
TAP	22	288	3
TAP	23	0	2
TAP	23	0	4
STR	23	96	1
SCR	23	96	1	96	96	4
TAP	23	96	5
TAP	23	288	5
HLD	24	0	4	96
HLD	24	0	6	96
HLD	24	192	1	96
HLD	24	192	3	96
STR	25	0	2
SCL	25	0	2	96	192	5
HLD	26	0	6	192
TAP	26	192	5
TAP	26	288	3
TAP	26	288	4
TAP	27	0	2
TAP	27	96	3
TAP	27	192	1
TAP	27	192	4
HLD	28	0	1	192
TAP	28	192	2
TAP	28	288	3
TAP	28	288	4
TAP	29	0	5
TAP	29	96	4
TAP	29	192	3
TAP	29	192	6
HLD	30	0	6	192
TAP	30	192	5
TAP	30	288	3
TAP	30	288	4
HLD	31	0	1	192
TAP	31	192	2
TAP	31	288	3
TAP	31	288	4
THO	32	0	0	384	C	0	M1
BRK	33	288	0
BRK	33	288	7
TAP	34	0	2
TAP	34	0	3
TAP	34	96	0
TAP	34	96	5
TAP	34	192	6
TAP	34	240	6
TAP	34	288	7
TAP	35	0	4
TAP	35	0	5
TAP	35	96	2
TAP	35	96	7
TAP	35	192	1
TAP	35	240	1
TAP	35	288	0
TAP	36	0	2
STR	36	0	3
SI_	36	0	3	96	48	6
STR	36	192	1
SI_	36	192	1	96	48	4
TAP	36	192	7
BRK	37	0	0
BRK	37	48	0
TAP	37	144	1
TAP	37	144	7
STR	37	192	1
SCR	37	192	1	96	48	4
STR	37	192	7
SCL	37	192	7	96	48	4
TAP	38	0	2
TAP	38	0	6
TAP	38	96	4
TAP	38	96	5
TAP	38	192	2
TAP	38	240	2
TAP	38	288	3
TAP	39	0	1
TAP	39	0	5
TAP	39	96	2
TAP	39	96	3
TAP	39	192	5
TAP	39	240	5
TAP	39	288	4
HLD	40	0	2	576
TAP	40	0	6
TAP	40	96	6
TAP	40	192	0
TAP	40	288	0
TAP	41	0	4
STR	41	96	4
SI_	41	96	4	96	48	7
BRK	41	288	0
TAP	42	0	2
TAP	42	0	7
TAP	42	96	4
TAP	42	96	5
TAP	42	192	2
TAP	42	240	2
TAP	42	288	3
TAP	43	0	0
TAP	43	0	5
TAP	43	96	2
TAP	43	96	3
TAP	43	192	5
TAP	43	240	5
TAP	43	288	4
TAP	44	0	2
STR	44	0	7
SI_	44	0	7	96	48	3
STR	44	192	0
SI_	44	192	0	96	48	4
TAP	44	192	5
XTP	45	0	1
XTP	45	0	6
XTP	45	48	1
XTP	45	48	6
TAP	45	192	3
TAP	45	192	4
STR	45	288	3
SCL	45	288	3	96	96	0
STR	45	288	4
SCR	45	288	4	96	96	7
TAP	46	192	0
TAP	46	192	7
TAP	46	288	2
TAP	47	0	1
TAP	47	0	3
TAP	47	96	5
TAP	47	192	4
TAP	47	192	6
STR	47	288	0
SCR	47	288	0	96	96	3
TAP	47	288	7
STR	48	96	7
SCL	48	96	7	96	96	4
STR	48	288	0
SXL	48	288	0	96	240	3
BRK	49	288	7
TAP	50	0	4
TAP	50	0	5
TAP	50	96	2
TAP	50	96	7
TAP	50	192	1
TAP	50	240	1
TAP	50	288	0
TAP	51	0	2
TAP	51	0	3
TAP	51	96	0
TAP	51	96	5
TAP	51	192	6
TAP	51	240	6
TAP	51	288	7
STR	52	0	4
SI_	52	0	4	96	48	1
TAP	52	0	5
TAP	52	192	0
STR	52	192	6
SI_	52	192	6	96	48	3
BRK	53	0	7
BRK	53	48	7
TAP	53	144	2
TAP	53	144	3
STR	53	192	2
SI_	53	192	2	96	48	7
STR	53	192	3
SI_	53	192	3	96	48	6
TAP	54	0	0
TAP	54	0	5
TAP	54	96	2
TAP	54	96	3
STR	54	192	4
SI_	54	192	4	96	48	1
STR	54	192	5
SI_	54	192	5	96	48	0
TAP	55	0	2
TAP	55	0	7
TAP	55	96	4
TAP	55	96	5
TAP	55	192	2
TAP	55	192	3
TAP	55	288	0
TAP	55	288	7
TAP	56	0	4
TAP	56	0	6
TAP	56	96	1
TAP	56	96	3
TAP	56	144	1
TAP	56	144	3
STR	56	240	0
SI_	56	240	0	96	48	4
STR	56	240	7
SI_	56	240	7	96	48	3
BRK	57	48	1
BRK	57	48	6
TAP	57	192	0
TAP	57	240	0
TAP	57	288	7
TAP	57	336	7
XTP	58	0	0
STR	58	0	6
SI_	58	0	6	96	48	3
TAP	58	96	2
TAP	58	192	2
TAP	58	288	2
TAP	58	288	3
STR	59	0	1
SI_	59	0	1	96	48	4
XTP	59	0	7
TAP	59	96	5
TAP	59	192	5
TAP	59	288	4
TAP	59	288	5
XTP	60	0	0
STR	60	0	6
SI_	60	0	6	96	48	3
TAP	60	96	2
TAP	60	192	2
TAP	60	288	0
TAP	60	288	2
STR	61	0	1
SI_	61	0	1	96	48	4
XTP	61	0	7
TAP	61	96	5
TAP	61	192	5
TAP	61	288	5
TAP	61	288	7
XTP	62	0	0
XTP	62	0	6
TAP	62	96	1
TAP	62	96	5
TAP	62	192	2
TAP	62	192	4
HLD	62	288	3	96
XTP	63	0	4
BRK	63	96	1
BRK	63	96	6
BRK	63	144	1
BRK	63	144	6
XTP	63	240	0
XTP	63	288	0
XTP	63	336	0
XTP	64	48	6
XTP	64	96	6
XTP	64	144	6
XTP	64	240	2
XTP	64	288	2
XTP	64	336	2
XTP	65	48	3
XTP	65	48	4
XTP	65	96	3
XTP	65	96	4
XTP	65	192	2
XTP	65	192	5
XTP	65	288	1
XTP	65	288	6
THO	66	0	0	672	C	1	M1
TTP	66	0	1	B	0	M1
TTP	66	0	2	B	0	M1
TTP	66	0	5	B	0	M1
TTP	66	0	6	B	0	M1
STR	69	0	1
SI_	69	0	1	96	48	3
STR	69	96	7
SI_	69	96	7	96	48	5
STR	69	192	0
SI_	69	192	0	96	48	4
STR	70	0	6
SI_	70	0	6	96	48	4
STR	70	96	0
SI_	70	96	0	96	48	2
STR	70	192	7
SI_	70	192	7	96	48	3
TAP	71	0	2
TAP	71	0	4
TAP	71	96	3
TAP	71	96	6
TAP	71	192	1
TAP	71	192	5
TAP	71	288	3
TAP	71	288	7
BST	72	0	6
SI_	72	0	6	96	48	4
STR	72	96	0
SI_	72	96	0	96	48	2
STR	72	192	7
SI_	72	192	7	96	48	3
BST	73	0	1
SI_	73	0	1	96	48	3
STR	73	96	7
SI_	73	96	7	96	48	5
STR	73	192	0
SI_	73	192	0	96	48	4
XST	74	0	1
SI_	74	0	1	96	48	3
XST	74	0	7
SI_	74	0	7	96	48	5
XST	74	192	0
SI_	74	192	0	96	48	2
XST	74	192	6
SI_	74	192	6	96	48	4
BST	75	0	7
SXL	75	0	7	96	192	2
SXR	75	0	7	96	192	4
BRK	76	0	0
BRK	76	0	6

T_REC_TAP	233
T_REC_BRK	18
T_REC_XTP	28
T_REC_HLD	21
T_REC_XHO	0
T_REC_STR	42
T_REC_BST	3
T_REC_XST	4
T_REC_TTP	14
T_REC_THO	2
T_REC_SLD	50
T_REC_ALL	415
T_NUM_TAP	321
T_NUM_BRK	21
T_NUM_HLD	23
T_NUM_SLD	50
T_NUM_ALL	415
T_JUDGE_TAP	342
T_JUDGE_HLD	82
T_JUDGE_SLD	50
T_JUDGE_ALL	474
TTM_EACHPAIRS	111
TTM_SCR_TAP	160500
TTM_SCR_BRK	54600
TTM_SCR_HLD	23000
TTM_SCR_SLD	75000
TTM_SCR_ALL	313100
TTM_SCR_S	301700
TTM_SCR_SS	311000
TTM_RAT_ACV	10067

