VERSION	0.00.00	1.03.00
FES_MODE	0
BPM_DEF	170.000	170.000	170.000	170.000
MET_DEF	4	4
RESOLUTION	384
CLK_DEF	384
COMPATIBLE_CODE	MA2

BPM	0	0	170.000
MET	0	0	4	4

TAP	2	0	2
TAP	2	96	1
TAP	2	192	0
TAP	2	288	6
TAP	2	288	7
TAP	3	0	5
TAP	3	96	6
TAP	3	192	7
TAP	3	288	0
TAP	3	288	1
TAP	4	0	2
TAP	4	96	1
TAP	4	192	0
TAP	4	288	6
TAP	4	288	7
TAP	5	0	0
TAP	5	96	0
TAP	5	96	7
XTP	5	192	1
XTP	5	192	6
TAP	6	0	5
TAP	6	96	6
TAP	6	192	7
TAP	6	288	0
TAP	6	288	1
TAP	7	0	2
TAP	7	96	1
TAP	7	192	0
TAP	7	288	6
TAP	7	288	7
TAP	8	0	5
TAP	8	96	6
TAP	8	192	7
TAP	8	288	0
TAP	8	288	1
TAP	9	0	7
TAP	9	96	0
TAP	9	96	7
BRK	9	192	1
BRK	9	192	6
HLD	10	0	5	192
TAP	10	192	4
TAP	10	288	4
HLD	11	0	3	192
TAP	11	192	4
TAP	11	288	4
HLD	12	0	5	192
TAP	12	192	4
TAP	12	288	3
TAP	13	0	2
TAP	13	96	2
XTP	13	192	2
XTP	13	192	3
HLD	14	0	2	192
TAP	14	192	3
TAP	14	288	3
HLD	15	0	4	192
TAP	15	192	3
TAP	15	288	3
HLD	16	0	2	192
TAP	16	192	3
TAP	16	288	4
TAP	17	0	5
TAP	17	96	5
XTP	17	192	4
XTP	17	192	6
HLD	18	0	5	192
TAP	18	192	4
TAP	18	288	3
HLD	19	0	2	192
TAP	19	192	3
TAP	19	288	4
HLD	20	0	5	192
TAP	20	192	4
TAP	20	288	3
TAP	21	0	2
TAP	21	96	2
XTP	21	192	1
XTP	21	192	3
HLD	22	0	2	192
TAP	22	192	3
TAP	22	288	4
HLD	23	0	5	192
TAP	23	192	4
TAP	23	288	3
TAP	24	0	2
TAP	24	96	2
TAP	24	192	1
TAP	24	288	1
TAP	25	0	0
TAP	25	96	7
BRK	25	192	1
BRK	25	192	6
TTP	26	0	1	B	0	L1
TTP	26	192	0	C	0	L1
TTP	27	0	5	B	0	L1
TTP	28	0	6	B	0	L1
TTP	28	192	0	C	0	L1
TTP	29	0	2	B	0	L1
TTP	30	0	1	B	0	L1
TTP	30	192	0	C	0	L1
TTP	31	0	5	B	0	L1
TTP	31	192	6	B	0	L1
TTP	32	0	0	C	1	L1
TAP	33	192	0
TAP	33	288	1
TAP	34	0	2
TAP	34	96	2
TAP	34	96	3
TAP	34	192	4
TAP	34	288	5
TAP	35	0	6
TAP	35	0	7
TAP	35	192	5
TAP	35	288	5
TAP	36	0	4
TAP	36	96	4
STR	36	192	3
SI_	36	192	3	96	144	0
TAP	36	192	4
TAP	37	192	7
TAP	37	288	6
TAP	38	0	5
TAP	38	96	4
TAP	38	96	5
TAP	38	192	3
TAP	38	288	2
TAP	39	0	0
TAP	39	0	1
TAP	39	192	2
TAP	39	288	2
TAP	40	0	1
TAP	40	96	1
TAP	40	192	0
TAP	40	288	0
TAP	40	288	7
BRK	41	0	1
BRK	41	0	6
TAP	41	192	7
TAP	41	288	6
TAP	42	0	5
TAP	42	96	4
TAP	42	96	5
TAP	42	192	3
TAP	42	288	2
TAP	43	0	0
TAP	43	0	1
TAP	43	192	2
TAP	43	288	2
TAP	44	0	3
TAP	44	96	3
TAP	44	192	3
STR	44	192	4
SI_	44	192	4	96	144	7
TAP	45	192	0
TAP	45	288	1
TAP	46	0	2
TAP	46	96	2
TAP	46	96	3
TAP	46	192	4
TAP	46	288	5
TAP	47	0	6
TAP	47	0	7
TAP	47	192	5
TAP	47	288	5
TAP	48	0	6
TAP	48	96	6
TAP	48	192	7
TAP	48	288	0
TAP	48	288	7
BRK	49	0	1
BRK	49	0	6
TAP	49	192	1
TAP	49	288	1
TAP	50	0	0
TAP	50	0	1
TAP	50	96	0
TAP	50	96	1
TAP	50	192	6
TAP	50	288	6
TAP	51	0	6
TAP	51	0	7
TAP	51	96	6
TAP	51	96	7
TAP	51	192	5
TAP	51	288	4
TAP	52	0	3
TAP	52	96	2
STR	52	192	3
SI_	52	192	3	96	144	0
STR	52	192	4
SI_	52	192	4	96	144	7
TAP	53	192	6
TAP	53	288	6
TAP	54	0	6
TAP	54	0	7
TAP	54	96	6
TAP	54	96	7
TAP	54	192	1
TAP	54	288	1
TAP	55	0	0
TAP	55	0	1
TAP	55	96	0
TAP	55	96	1
TAP	55	192	2
TAP	55	288	3
TAP	56	0	4
TAP	56	96	5
TAP	56	192	6
TAP	56	288	6
TAP	56	288	7
BRK	57	0	0
BRK	57	0	5
TAP	57	192	6
TAP	57	288	6
TAP	58	0	6
TAP	58	0	7
TAP	58	96	6
TAP	58	96	7
TAP	58	192	1
TAP	58	288	1
TAP	59	0	0
TAP	59	0	1
TAP	59	96	0
TAP	59	96	1
TAP	59	192	2
TAP	59	288	3
TAP	60	0	4
TAP	60	96	5
STR	60	192	3
SI_	60	192	3	96	144	0
STR	60	192	4
SI_	60	192	4	96	144	7
TAP	61	192	1
TAP	61	288	1
TAP	62	0	0
TAP	62	0	1
TAP	62	96	0
TAP	62	96	1
TAP	62	192	6
TAP	62	288	6
TAP	63	0	6
TAP	63	0	7
TAP	63	96	6
TAP	63	96	7
TAP	63	192	5
TAP	63	288	5
TAP	64	0	4
TAP	64	0	5
TAP	64	96	2
TAP	64	192	2
TAP	64	192	3
TAP	64	288	1
TAP	65	0	0
TAP	65	0	1
TAP	65	96	6
TAP	65	192	6
TAP	65	192	7
TAP	65	288	6
TAP	65	288	7
BST	66	0	0
SUR	66	0	0	96	480	3
BRK	66	0	5
TAP	68	0	4
TAP	68	96	5
TAP	68	192	6
XTP	68	288	7
TAP	69	0	0
TAP	69	96	1
TAP	69	192	2
XTP	69	288	3
TAP	70	0	2
TAP	70	96	1
TAP	70	192	0
XTP	70	288	7
TAP	71	0	6
TAP	71	96	6
TAP	71	96	7
BRK	71	192	0
BRK	71	192	5
TTP	72	0	6	B	0	L1
TTP	72	192	0	C	0	L1
TTP	73	0	2	B	0	L1
TTP	73	192	1	B	0	L1
TTP	74	0	0	C	0	L1
TTP	74	192	5	B	0	L1
TTP	75	0	6	B	0	L1
THO	75	192	0	192	C	1	L1

T_REC_TAP	220
T_REC_BRK	13
T_REC_XTP	11
T_REC_HLD	11
T_REC_XHO	0
T_REC_STR	6
T_REC_BST	1
T_REC_XST	0
T_REC_TTP	18
T_REC_THO	1
T_REC_SLD	7
T_REC_ALL	288
T_NUM_TAP	255
T_NUM_BRK	14
T_NUM_HLD	12
T_NUM_SLD	7
T_NUM_ALL	288
T_JUDGE_TAP	269
T_JUDGE_HLD	48
T_JUDGE_SLD	7
T_JUDGE_ALL	324
TTM_EACHPAIRS	56
TTM_SCR_TAP	127500
TTM_SCR_BRK	36400
TTM_SCR_HLD	12000
TTM_SCR_SLD	10500
TTM_SCR_ALL	186400
TTM_SCR_S	179450
TTM_SCR_SS	185000
TTM_RAT_ACV	10075

