VERSION	0.00.00	1.03.00
FES_MODE	0
BPM_DEF	170.000	170.000	170.000	170.000
MET_DEF	4	4
RESOLUTION	384
CLK_DEF	384
COMPATIBLE_CODE	MA2

BPM	0	0	170.000
MET	0	0	4	4

TAP	10	0	3
TAP	11	0	3
TAP	12	0	2
TAP	13	0	2
TAP	14	0	1
TAP	15	0	1
HLD	16	0	0	384
TAP	18	0	7
TAP	19	0	7
TAP	20	0	6
TAP	21	0	6
TAP	22	0	5
TAP	23	0	5
TAP	24	0	4
XTP	25	0	3
XTP	25	0	4
TTP	26	0	2	B	0	L1
TTP	27	0	1	B	0	L1
TTP	28	0	0	B	0	L1
TTP	29	0	7	B	0	L1
TTP	30	0	6	B	0	L1
TTP	31	0	5	B	0	L1
THO	32	0	0	384	C	1	L1
TAP	34	0	7
TAP	34	192	7
TAP	35	0	6
TAP	35	192	6
TAP	36	0	5
TAP	36	192	5
TAP	37	0	3
TAP	37	0	4
TAP	38	0	3
TAP	38	192	3
TAP	39	0	2
TAP	39	192	2
TAP	40	0	1
TAP	40	192	1
BRK	41	0	0
BRK	41	0	7
TAP	42	0	0
TAP	42	192	0
TAP	43	0	1
TAP	43	192	1
TAP	44	0	2
TAP	44	192	2
TAP	45	0	3
TAP	45	0	4
TAP	46	0	4
TAP	46	192	4
TAP	47	0	5
TAP	47	192	5
TAP	48	0	6
TAP	48	192	6
XTP	49	0	0
XTP	49	0	7
BRK	49	192	0
BRK	49	192	7
TAP	50	0	7
TAP	50	96	7
TAP	50	192	7
TAP	51	0	6
TAP	51	96	6
TAP	51	192	6
TAP	52	0	5
TAP	52	96	5
TAP	52	192	5
TAP	53	0	3
TAP	53	0	4
XTP	53	192	3
XTP	53	192	4
TAP	54	0	3
TAP	54	96	3
TAP	54	192	3
TAP	55	0	2
TAP	55	96	2
TAP	55	192	2
TAP	56	0	1
TAP	56	96	1
TAP	56	192	1
XTP	57	0	0
XTP	57	0	7
BRK	57	192	0
BRK	57	192	7
TAP	58	0	0
TAP	58	96	0
TAP	58	192	0
TAP	59	0	1
TAP	59	96	1
TAP	59	192	1
TAP	60	0	2
TAP	60	96	2
TAP	60	192	2
TAP	61	0	3
TAP	61	0	4
XTP	61	192	3
XTP	61	192	4
HLD	62	0	4	192
HLD	62	0	5	192
HLD	63	0	2	192
HLD	63	0	3	192
TAP	64	0	3
TAP	64	0	4
TAP	64	192	3
TAP	64	192	4
TAP	65	0	2
TAP	65	0	5
TAP	65	192	2
TAP	65	192	5
STR	66	0	1
SI_	66	0	1	96	288	5
TAP	68	0	6
TAP	68	192	6
TAP	69	0	5
TAP	69	192	5
TAP	70	0	4
TAP	70	192	4
HLD	71	0	3	192
TAP	72	0	2
TAP	72	192	2
TAP	73	0	1
TAP	73	192	1
TAP	74	0	0
TAP	74	192	0
STR	75	0	7
SI_	75	0	7	96	288	3

T_REC_TAP	92
T_REC_BRK	6
T_REC_XTP	10
T_REC_HLD	6
T_REC_XHO	0
T_REC_STR	2
T_REC_BST	0
T_REC_XST	0
T_REC_TTP	6
T_REC_THO	1
T_REC_SLD	2
T_REC_ALL	125
T_NUM_TAP	110
T_NUM_BRK	6
T_NUM_HLD	7
T_NUM_SLD	2
T_NUM_ALL	125
T_JUDGE_TAP	116
T_JUDGE_HLD	36
T_JUDGE_SLD	2
T_JUDGE_ALL	154
TTM_EACHPAIRS	18
TTM_SCR_TAP	55000
TTM_SCR_BRK	15600
TTM_SCR_HLD	7000
TTM_SCR_SLD	3000
TTM_SCR_ALL	80600
TTM_SCR_S	77600
TTM_SCR_SS	80000
TTM_RAT_ACV	10075

