VERSION	0.00.00	1.03.00
FES_MODE	0
BPM_DEF	190.000	190.000	190.000	190.000
MET_DEF	4	4
RESOLUTION	384
CLK_DEF	384
COMPATIBLE_CODE	MA2

BPM	0	0	190.000
MET	0	0	4	4

HLD	2	0	2	192
TAP	2	0	4
TTP	2	192	5	B	0	M1
HLD	2	336	2	240
TAP	2	336	3
TAP	3	96	3
TTP	3	192	5	E	0	M1
TAP	4	0	3
HLD	4	0	5	192
TTP	4	192	2	B	0	M1
TAP	4	336	4
HLD	4	336	5	240
TAP	5	96	4
TTP	5	192	3	E	0	M1
HLD	6	0	1	192
TAP	6	0	3
TTP	6	192	0	C	0	M1
HLD	6	336	1	240
TAP	6	336	2
TAP	7	96	2
TTP	7	192	0	C	0	M1
TAP	8	0	4
HLD	8	0	6	192
TTP	8	192	0	C	0	M1
TAP	8	336	5
HLD	8	336	6	240
TAP	9	96	5
TTP	9	192	0	C	0	M1
HLD	10	0	2	192
TAP	10	0	3
TAP	10	96	4
HLD	10	192	5	192
TAP	10	288	4
HLD	11	0	3	192
TAP	11	96	6
HLD	11	192	7	96
TAP	11	288	4
TAP	12	0	4
HLD	12	0	5	192
TAP	12	96	3
HLD	12	192	2	192
TAP	12	288	3
HLD	13	0	4	192
TAP	13	96	1
HLD	13	192	0	96
TAP	13	288	3
TAP	14	0	2
TAP	14	0	4
TAP	14	48	3
TAP	14	96	4
TAP	14	192	3
TAP	14	192	5
TAP	14	240	4
TAP	14	288	3
TAP	15	0	1
TAP	15	0	4
TAP	15	48	2
TAP	15	96	4
TAP	15	192	3
TAP	15	192	6
TAP	15	240	5
TAP	15	288	3
TAP	16	0	1
TAP	16	0	6
TAP	16	48	1
TAP	16	96	4
TAP	16	144	4
TAP	16	192	3
TAP	16	240	3
TAP	16	288	6
TAP	16	336	6
TAP	17	0	0
TAP	17	0	7
TAP	17	48	0
TAP	17	72	7
TAP	17	96	0
TAP	17	144	1
TAP	17	144	6
TAP	17	192	3
TAP	17	216	4
TAP	17	240	3
BST	17	288	1
SCR	17	288	1	96	96	4
BRK	17	288	6
TAP	18	0	0
STR	18	96	6
SCL	18	96	6	96	96	2
TAP	18	192	7
STR	18	288	0
SI_	18	288	0	96	96	4
STR	19	0	4
SI_	19	0	4	96	96	0
TAP	19	96	7
TAP	19	192	4
BRK	19	288	1
BST	19	288	6
SI_	19	288	6	96	96	3
STR	20	0	3
SI_	20	0	3	96	96	0
STR	20	96	0
SI_	20	96	0	96	96	5
STR	20	192	5
SI_	20	192	5	96	72	2
STR	20	288	2
SCL	20	288	2	96	96	6
STR	21	0	6
SCR	21	0	6	96	96	2
TAP	21	96	3
TAP	21	192	6
BST	21	288	2
SCR	21	288	2	96	96	5
BRK	21	288	5
TAP	22	0	0
STR	22	96	7
SCL	22	96	7	96	96	3
TAP	22	192	2
STR	22	288	1
SI_	22	288	1	96	96	5
STR	23	0	5
SI_	23	0	5	96	96	1
TAP	23	96	0
TAP	23	192	5
BRK	23	288	0
BST	23	288	6
SI_	23	288	6	96	96	1
STR	24	0	1
SI_	24	0	1	96	96	4
STR	24	96	4
SI_	24	96	4	96	96	7
STR	24	192	7
SI_	24	192	7	96	72	2
STR	24	288	2
SCR	24	288	2	96	96	6
STR	25	0	6
SCL	25	0	6	96	96	2
TAP	25	96	1
TAP	25	192	6
BST	25	288	1
SCL	25	288	1	96	96	6
BRK	25	288	5
TAP	26	0	3
STR	26	96	4
SCR	26	96	4	96	96	0
TAP	26	192	2
STR	26	288	3
SI_	26	288	3	96	96	7
STR	27	0	7
SI_	27	0	7	96	96	3
TAP	27	96	4
TAP	27	192	7
BRK	27	288	2
BST	27	288	5
SI_	27	288	5	96	96	0
STR	28	0	0
SI_	28	0	0	96	96	3
STR	28	96	3
SI_	28	96	3	96	96	6
STR	28	192	6
SI_	28	192	6	96	72	1
STR	28	288	1
SUR	28	288	1	96	96	6
STR	29	0	6
SUL	29	0	6	96	96	1
TAP	29	96	0
TAP	29	192	6
BST	29	288	1
SCL	29	288	1	96	96	6
BRK	29	288	5
TAP	30	0	3
STR	30	96	4
SCR	30	96	4	96	96	0
TAP	30	192	2
STR	30	288	1
SI_	30	288	1	96	96	5
STR	31	0	5
SI_	31	0	5	96	96	1
TAP	31	96	0
TAP	31	192	5
BRK	31	288	0
BST	31	288	6
SI_	31	288	6	96	96	1
STR	32	0	1
SI_	32	0	1	96	96	4
STR	32	96	4
SI_	32	96	4	96	96	7
STR	32	192	7
SI_	32	192	7	96	72	2
STR	32	288	2
SUL	32	288	2	96	96	5
STR	33	0	5
SUR	33	0	5	96	96	2
TAP	33	96	1
TAP	33	192	5
BRK	33	288	1
BRK	33	288	6
HLD	34	0	3	96
TAP	34	0	4
TAP	34	96	7
TAP	34	144	6
TAP	34	192	4
HLD	34	192	5	96
TAP	34	288	0
TAP	34	336	1
HLD	35	0	2	96
TAP	35	0	3
TAP	35	96	7
TAP	35	144	6
TAP	35	192	4
HLD	35	192	5	96
TAP	35	288	0
TAP	35	336	1
HLD	36	0	2	96
TAP	36	0	4
TAP	36	96	7
TAP	36	144	6
TAP	36	192	3
HLD	36	192	5	96
TAP	36	288	7
TAP	36	336	0
HLD	37	0	1	96
TAP	37	0	3
TAP	37	96	0
TAP	37	144	7
TAP	37	192	4
HLD	37	192	6	96
TAP	37	288	7
TAP	37	336	0
TAP	38	0	1
TAP	38	0	3
TAP	38	48	4
TAP	38	96	5
TAP	38	144	6
TAP	38	192	7
TAP	38	240	0
TAP	38	288	1
TAP	38	336	2
TAP	39	0	3
TAP	39	0	4
TAP	39	48	3
TAP	39	48	4
TAP	39	96	2
TAP	39	96	5
TAP	39	144	2
TAP	39	144	5
TAP	39	192	6
TAP	39	216	1
TAP	39	240	6
TAP	39	264	1
TAP	39	288	7
TAP	39	312	0
TAP	39	336	7
XTP	40	0	6
XTP	40	32	4
XTP	40	64	5
XTP	40	96	1
XTP	40	128	3
XTP	40	160	2
XTP	40	192	5
XTP	40	224	4
XTP	40	256	7
XTP	40	288	2
XTP	40	320	3
XTP	40	352	0
TTP	41	0	6	E	0	M1
TTP	41	96	2	E	0	M1
TTP	41	192	0	C	1	M1
TTP	41	240	0	C	1	M1
TTP	41	288	0	C	1	M1
TTP	41	336	0	C	1	M1
BST	42	0	0
SI_	42	0	0	96	48	3
SI_	42	0	0	96	48	5
BRK	42	96	0
TAP	42	192	1
TAP	42	192	6
TAP	42	240	7
TAP	42	264	4
TAP	42	312	4
TAP	42	336	7
STR	43	0	3
SI_	43	0	3	96	48	0
STR	43	0	5
SI_	43	0	5	96	48	0
TAP	43	48	2
TAP	43	48	6
TAP	43	96	3
TAP	43	96	5
TAP	43	192	1
TAP	43	192	6
TAP	43	240	0
TAP	43	264	3
TAP	43	312	3
TAP	43	336	0
BRK	44	0	2
BRK	44	0	6
TTP	44	96	2	E	0	M1
TTP	44	144	6	E	0	M1
TAP	44	192	0
TAP	44	192	7
TAP	44	240	6
TAP	44	264	4
TAP	44	312	4
TAP	44	336	6
TAP	45	0	1
STR	45	0	4
SI_	45	0	4	96	48	1
TAP	45	96	0
STR	45	144	0
SI_	45	144	0	96	48	5
TAP	45	240	7
TAP	45	288	7
TAP	46	0	1
TAP	46	0	6
BRK	46	96	2
BRK	46	96	3
BRK	46	144	4
BRK	46	144	5
TAP	46	192	1
TAP	46	192	6
TAP	46	240	7
TAP	46	264	4
TAP	46	312	4
TAP	46	336	7
TAP	47	0	3
STR	47	0	6
SI_	47	0	6	96	48	2
SV_	47	0	6	96	48	0
TAP	47	192	1
TAP	47	192	6
TAP	47	240	0
TAP	47	264	3
TAP	47	312	3
TAP	47	336	0
TAP	48	0	4
TAP	48	0	5
TAP	48	48	6
TAP	48	96	2
TAP	48	96	3
TAP	48	144	1
XTP	48	192	3
XTP	48	192	4
XTP	48	264	0
XTP	48	264	1
XTP	48	336	6
XTP	48	336	7
TAP	49	0	5
TAP	49	24	4
TAP	49	48	5
STR	49	96	2
SI_	49	96	2	96	144	6
SSL	49	96	2	96	144	6
TAP	49	120	3
TAP	49	144	2
BRK	50	0	0
BRK	50	0	7
TAP	50	96	1
HLD	50	96	6	96
HLD	50	192	4	96
TAP	50	288	5
TAP	50	336	6
HLD	51	0	7	192
TTP	51	48	6	E	0	M1
TTP	51	96	3	E	0	M1
TTP	51	144	0	E	0	M1
HLD	51	192	1	96
TAP	51	240	0
TAP	51	288	0
TAP	51	336	7
HLD	52	0	6	192
TTP	52	48	5	E	0	M1
TTP	52	96	2	B	0	M1
TTP	52	144	0	E	0	M1
HLD	52	192	1	96
TAP	52	240	3
TAP	52	288	3
TAP	52	336	4
TAP	53	0	2
TAP	53	0	6
TAP	53	48	5
TAP	53	72	4
TAP	53	96	6
TAP	53	144	2
TAP	53	168	3
TAP	53	192	1
TAP	53	240	0
TAP	53	240	7
TAP	53	288	1
TAP	53	288	6
TAP	53	336	2
TAP	53	336	5
BRK	54	0	3
BRK	54	0	4
HLD	54	96	1	96
TAP	54	96	6
HLD	54	192	3	96
TAP	54	288	2
TAP	54	336	1
HLD	55	0	0	192
TTP	55	48	2	E	0	M1
TTP	55	96	5	E	0	M1
TTP	55	144	0	E	0	M1
HLD	55	192	6	96
TAP	55	240	7
TAP	55	288	7
TAP	55	336	0
HLD	56	0	1	48
TAP	56	48	3
HLD	56	96	6	48
TAP	56	144	4
HLD	56	192	0	48
TAP	56	240	3
HLD	56	288	7	48
TAP	56	336	4
TAP	57	0	0
TAP	57	48	0
TAP	57	96	7
TAP	57	144	7
XTP	57	192	0
XTP	57	204	1
XTP	57	216	2
XTP	57	228	3
XTP	57	240	4
XTP	57	252	5
XTP	57	264	6
XTP	57	276	7
STR	57	288	0
SF_	57	288	0	96	288	4
XTP	57	300	1
XTP	57	312	2
XTP	57	324	3
XTP	57	336	4
XTP	57	348	5
XTP	57	360	6
XTP	57	372	7
HLD	60	0	3	192
TAP	60	0	5
TTP	60	192	2	E	0	M1
HLD	60	336	4	240
TAP	60	336	5
TAP	61	96	5
TTP	61	192	2	B	0	M1
TAP	62	0	2
HLD	62	0	4	192
TTP	62	192	6	E	0	M1
TAP	62	336	2
HLD	62	336	3	240
TAP	63	96	2
TTP	63	192	5	B	0	M1
HLD	64	0	4	192
TAP	64	0	6
TTP	64	192	0	C	0	M1
HLD	64	336	5	240
TAP	64	336	6
TAP	65	96	6
TTP	65	192	0	C	0	M1
TAP	66	0	1
HLD	66	0	3	192
TTP	66	192	0	C	0	M1
TAP	66	336	1
HLD	66	336	2	240
TAP	67	96	1
TTP	67	192	0	C	0	M1
TAP	68	0	4
HLD	68	0	6	192
TTP	68	96	5	B	0	M1
TTP	68	192	7	B	0	M1
TTP	68	192	7	E	0	M1
HLD	68	336	1	240
TAP	68	336	3
TTP	69	96	3	B	0	M1
TTP	69	96	3	E	0	M1
TTP	69	192	0	B	0	M1
TTP	69	192	1	E	0	M1
TAP	70	0	4
HLD	70	0	6	192
TTP	70	96	5	B	0	M1
TTP	70	192	7	B	0	M1
TTP	70	192	7	E	0	M1
HLD	70	336	1	240
TAP	70	336	3
TTP	71	96	3	B	0	M1
TTP	71	96	3	E	0	M1
TTP	71	192	0	B	0	M1
TTP	71	192	1	E	0	M1
TAP	72	0	3
TAP	72	0	5
TAP	72	48	4
TAP	72	96	3
TAP	72	192	2
TAP	72	192	4
TAP	72	240	3
TAP	72	288	4
TAP	73	0	3
TAP	73	0	6
TAP	73	48	5
TAP	73	96	3
TAP	73	192	1
TAP	73	192	4
TAP	73	240	2
TAP	73	288	4
TAP	74	0	2
TAP	74	0	5
TAP	74	48	5
TAP	74	96	7
TAP	74	144	7
TAP	74	192	0
TAP	74	240	0
TAP	74	288	2
TAP	74	336	2
TAP	75	0	3
TAP	75	0	4
TAP	75	48	4
TAP	75	72	3
TAP	75	96	4
TAP	75	144	2
TAP	75	144	5
TAP	75	192	7
TAP	75	216	0
TAP	75	240	7
BRK	75	288	1
BRK	75	288	6
TAP	76	0	3
TAP	76	0	5
TAP	76	72	5
TAP	76	96	4
TAP	76	144	3
TAP	76	144	5
HLD	76	192	2	96
TAP	76	240	3
TAP	76	288	3
TAP	77	0	2
TAP	77	0	4
TAP	77	72	2
TAP	77	96	3
TAP	77	144	2
TAP	77	144	4
HLD	77	192	5	96
TAP	77	240	4
TAP	77	288	4
TAP	78	0	3
TAP	78	0	5
TAP	78	72	5
TAP	78	96	4
TAP	78	144	3
TAP	78	144	5
HLD	78	192	2	96
TAP	78	240	0
TAP	78	288	0
TAP	79	0	2
TAP	79	0	4
TAP	79	72	2
TAP	79	96	3
TAP	79	144	2
TAP	79	144	4
HLD	79	192	5	96
TAP	79	240	7
TAP	79	288	7
TAP	80	0	0
TAP	80	0	7
TAP	80	48	1
TAP	80	96	2
TAP	80	144	3
TAP	80	192	4
TAP	80	240	5
TAP	80	288	1
TAP	80	288	6
TAP	80	336	2
TAP	80	336	5
TAP	81	0	4
TAP	81	24	3
TAP	81	48	4
TAP	81	72	3
TAP	81	96	5
TAP	81	120	2
TAP	81	144	5
TAP	81	168	2
TAP	81	192	6
TAP	81	216	1
TAP	81	240	6
TAP	81	264	1
TAP	81	288	7
TAP	81	312	0
TAP	81	336	7
TTP	82	0	1	E	0	M1
TTP	82	12	1	B	0	M1
TTP	82	24	2	B	0	M1
TTP	82	36	3	E	0	M1
TTP	82	96	7	E	0	M1
TTP	82	108	6	B	0	M1
TTP	82	120	5	B	0	M1
TTP	82	132	5	E	0	M1
THO	82	192	0	96	C	1	M1
BRK	83	0	6
BRK	83	0	7
BRK	83	96	0
BRK	83	96	1
XHO	83	192	7	12
XHO	83	216	7	12
XHO	83	240	7	12
XHO	83	264	7	12
XHO	83	288	7	12
XHO	83	312	7	12
XHO	83	336	7	12
XHO	83	360	7	12
XST	84	0	7
SI_	84	0	7	96	48	2
SI_	84	0	7	96	48	4
TAP	84	96	7
TAP	84	192	5
TAP	84	216	4
TAP	84	240	6
TAP	84	264	4
TAP	84	288	5
TAP	84	336	2
TAP	84	360	3
TAP	85	0	1
TAP	85	24	3
TAP	85	48	2
STR	85	96	1
SV_	85	96	1	96	48	4
STR	85	144	0
SV_	85	144	0	96	48	5
XTP	85	192	1
XTP	85	240	0
BRK	85	288	1
XTP	86	0	6
XTP	86	12	5
XTP	86	24	4
XTP	86	36	3
XTP	86	96	0
XTP	86	108	7
XTP	86	120	6
XTP	86	132	5
XTP	86	192	7
XTP	86	204	6
XTP	86	216	5
XTP	86	228	4
BRK	86	288	1
BRK	86	288	6
BRK	87	0	0
BRK	87	0	7
BRK	87	96	2
BRK	87	96	3
BST	87	144	4
SI_	87	144	4	96	48	1
BST	87	144	5
SI_	87	144	5	96	48	0
BRK	87	240	4
BRK	87	240	5
BRK	87	336	2
BRK	87	336	7
XST	88	0	6
SI_	88	0	6	96	48	1
SI_	88	0	6	96	48	3
TAP	88	96	6
XTP	88	192	2
XTP	88	192	4
XHO	88	240	1	96
XHO	88	240	5	96
STR	89	0	0
SUL	89	0	0	96	48	3
STR	89	0	7
SCL	89	0	7	96	48	4
XTP	89	192	2
XTP	89	192	5
XTP	89	264	1
XTP	89	264	3
XTP	89	336	4
XTP	89	336	6
TAP	90	0	0
TAP	90	0	7
TAP	90	48	2
TAP	90	72	3
TAP	90	96	1
TAP	90	144	5
TAP	90	168	4
TAP	90	192	6
XTP	90	264	0
XTP	90	264	7
XTP	90	336	1
XTP	90	336	6
TAP	91	0	5
TAP	91	24	4
TAP	91	48	5
STR	91	96	2
SI_	91	96	2	96	144	6
SSR	91	96	2	96	144	6
TAP	91	120	3
TAP	91	144	2
BRK	92	0	0
BRK	92	0	7
TTP	92	96	6	B	0	M1
TTP	92	96	6	E	0	M1
TTP	92	144	2	B	0	M1
TTP	92	144	2	E	0	M1
TTP	92	192	4	B	0	M1
TTP	92	192	4	E	0	M1
TTP	92	240	0	B	0	M1
TTP	92	240	0	E	0	M1
TTP	92	288	7	B	0	M1
TTP	92	288	7	E	0	M1
TTP	92	336	3	B	0	M1
TTP	92	336	3	E	0	M1
HLD	93	0	6	192
TTP	93	48	5	E	0	M1
TTP	93	96	0	E	0	M1
TTP	93	144	3	E	0	M1
HLD	93	192	0	96
TAP	93	240	4
TAP	93	288	4
TAP	93	336	4
XHO	94	0	3	48
XHO	94	0	5	48
XHO	94	72	4	48
XHO	94	72	6	48
XHO	94	144	5	48
XHO	94	144	7	48
XHO	94	216	0	72
XTP	94	216	6
TAP	94	288	7
TAP	94	336	7
TAP	95	0	1
STR	95	0	6
SI_	95	0	6	96	48	1
TAP	95	48	0
TAP	95	48	7
TAP	95	192	3
TAP	95	192	4
TAP	95	240	2
TAP	95	240	5
BRK	95	288	1
BRK	95	288	6
BRK	96	0	3
BRK	96	0	4
TTP	96	96	1	B	0	M1
TTP	96	96	1	E	0	M1
TTP	96	144	5	B	0	M1
TTP	96	144	5	E	0	M1
TTP	96	192	3	B	0	M1
TTP	96	192	3	E	0	M1
TTP	96	240	7	B	0	M1
TTP	96	240	7	E	0	M1
TTP	96	288	0	B	0	M1
TTP	96	288	0	E	0	M1
TTP	96	336	4	B	0	M1
TTP	96	336	4	E	0	M1
HLD	97	0	1	192
TTP	97	48	3	E	0	M1
TTP	97	96	0	E	0	M1
TTP	97	144	5	E	0	M1
HLD	97	192	7	96
TTP	97	240	6	E	0	M1
TTP	97	288	3	E	0	M1
TTP	97	336	1	E	0	M1
TAP	98	0	4
TAP	98	48	4
TAP	98	96	3
TAP	98	144	3
TAP	98	192	3
TAP	98	192	4
TAP	98	240	2
TAP	98	240	5
TAP	98	288	1
TAP	98	288	6
TAP	98	336	1
TAP	98	336	6
TAP	99	0	0
TAP	99	0	7
TAP	99	48	5
TAP	99	72	4
TAP	99	96	6
TAP	99	144	2
TAP	99	168	3
TAP	99	192	1
TAP	99	216	0
TAP	99	240	1
TAP	99	264	0
XTP	99	288	1
XTP	99	300	2
XTP	99	312	3
XTP	99	324	4
XTP	99	336	5
XTP	99	348	6
XTP	99	360	7
XTP	99	372	0
BRK	100	0	1
BRK	100	0	5

T_REC_TAP	387
T_REC_BRK	46
T_REC_XTP	68
T_REC_HLD	58
T_REC_XHO	17
T_REC_STR	45
T_REC_BST	11
T_REC_XST	2
T_REC_TTP	88
T_REC_THO	1
T_REC_SLD	64
T_REC_ALL	787
T_NUM_TAP	590
T_NUM_BRK	57
T_NUM_HLD	76
T_NUM_SLD	64
T_NUM_ALL	787
T_JUDGE_TAP	647
T_JUDGE_HLD	206
T_JUDGE_SLD	64
T_JUDGE_ALL	917
TTM_EACHPAIRS	131
TTM_SCR_TAP	295000
TTM_SCR_BRK	148200
TTM_SCR_HLD	76000
TTM_SCR_SLD	96000
TTM_SCR_ALL	615200
TTM_SCR_S	591250
TTM_SCR_SS	609500
TTM_RAT_ACV	10093

