VERSION	0.00.00	1.03.00
FES_MODE	0
BPM_DEF	190.000	190.000	190.000	190.000
MET_DEF	4	4
RESOLUTION	384
CLK_DEF	384
COMPATIBLE_CODE	MA2

BPM	0	0	190.000
MET	0	0	4	4

TAP	2	0	3
HLD	2	0	5	1344
TAP	2	192	4
TAP	2	336	3
TAP	3	96	4
TAP	3	192	4
TAP	3	288	3
TAP	4	0	3
TAP	4	192	4
TAP	4	336	3
TAP	5	96	4
TAP	5	192	4
HLD	6	0	2	1344
TAP	6	0	4
TAP	6	192	3
TAP	6	336	4
TAP	7	96	3
TAP	7	192	3
TAP	7	288	4
TAP	8	0	4
TAP	8	192	3
TAP	8	336	4
TAP	9	96	3
TAP	9	192	3
TAP	10	0	3
HLD	10	0	5	192
TTP	10	192	5	B	0	M1
TTP	10	192	6	B	0	M1
HLD	11	0	2	192
TAP	11	0	4
TTP	11	192	1	B	0	M1
TTP	11	192	2	B	0	M1
TAP	12	0	3
HLD	12	0	4	192
TTP	12	192	5	B	0	M1
TTP	12	192	6	B	0	M1
HLD	13	0	3	192
TAP	13	0	4
TTP	13	192	1	B	0	M1
TTP	13	192	2	B	0	M1
TTP	14	0	4	B	0	M1
TTP	14	96	5	B	0	M1
TTP	14	192	6	B	0	M1
TTP	14	288	7	B	0	M1
TTP	15	0	0	B	0	M1
TTP	15	96	1	B	0	M1
TTP	15	192	2	B	0	M1
TTP	15	288	3	B	0	M1
TAP	16	0	4
TAP	16	48	4
TAP	16	96	4
TAP	16	144	4
TAP	16	192	3
TAP	16	240	3
TAP	16	288	3
TAP	16	336	3
STR	17	0	4
SF_	17	0	4	96	192	0
XHO	18	0	2	96
XHO	18	0	6	96
HLD	18	192	1	96
HLD	18	192	5	96
TAP	19	0	2
TAP	19	0	6
TAP	19	96	1
TAP	19	96	5
TAP	19	192	2
TAP	19	192	6
TAP	20	0	1
TAP	20	96	2
TAP	20	192	3
TAP	20	288	4
TAP	21	0	5
TAP	21	96	6
TAP	21	192	0
TAP	21	192	7
XHO	22	0	1	96
XHO	22	0	5	96
HLD	22	192	2	96
HLD	22	192	6	96
TAP	23	0	1
TAP	23	0	5
TAP	23	96	2
TAP	23	96	6
TAP	23	192	1
TAP	23	192	5
TAP	24	0	6
TAP	24	96	5
TAP	24	192	4
TAP	24	288	3
TAP	25	0	2
TAP	25	96	1
TAP	25	192	0
TAP	25	192	7
HLD	26	0	2	96
HLD	26	0	6	96
HLD	26	192	1	96
HLD	26	192	5	96
TAP	27	0	0
TAP	27	0	4
TAP	27	96	3
TAP	27	96	7
TAP	27	192	0
TAP	27	192	4
HLD	28	0	1	96
HLD	28	96	2	96
HLD	28	192	3	96
HLD	28	288	4	96
HLD	29	0	5	96
TAP	29	96	6
TAP	29	192	0
TAP	29	192	7
HLD	30	0	1	96
HLD	30	0	5	96
HLD	30	192	2	96
HLD	30	192	6	96
TAP	31	0	3
TAP	31	0	7
TAP	31	96	0
TAP	31	96	4
TAP	31	192	3
TAP	31	192	7
HLD	32	0	5	96
HLD	32	96	4	96
HLD	32	192	3	96
TAP	32	288	2
TAP	33	0	0
TAP	33	0	7
TAP	33	96	3
TAP	33	96	4
BRK	33	192	1
BRK	33	192	6
XST	34	0	1
SI_	34	0	1	96	96	4
XST	34	192	0
SI_	34	192	0	96	96	5
XST	35	0	2
SI_	35	0	2	96	96	7
XST	35	192	3
SI_	35	192	3	96	96	6
XST	36	0	7
SI_	36	0	7	96	96	2
XST	36	192	6
SI_	36	192	6	96	96	3
XST	37	0	4
SI_	37	0	4	96	96	1
XST	37	192	5
SI_	37	192	5	96	96	0
TAP	38	0	1
TAP	38	96	0
TAP	38	192	7
TAP	38	288	6
TAP	39	0	1
TAP	39	48	1
TAP	39	96	6
TAP	39	144	6
XTP	39	192	0
XTP	39	192	7
XTP	39	240	0
XTP	39	240	7
XTP	39	288	0
XTP	39	288	7
STR	40	0	1
SI_	40	0	1	96	48	3
HLD	40	0	3	96
HLD	40	192	4	96
STR	40	192	6
SI_	40	192	6	96	48	4
BRK	41	0	0
BRK	41	96	0
BRK	41	192	0
BRK	41	288	2
BRK	41	288	6
TAP	42	0	1
TAP	42	0	5
TAP	42	96	3
TAP	42	96	4
HLD	42	192	1	72
HLD	42	264	2	72
TAP	42	336	3
STR	43	0	3
SI_	43	0	3	96	48	1
TAP	43	96	0
HLD	43	192	6	72
HLD	43	264	5	72
TAP	43	336	4
STR	44	0	4
SI_	44	0	4	96	24	6
TAP	44	96	7
HLD	44	192	1	72
HLD	44	264	2	72
TAP	44	336	3
TAP	45	0	3
TAP	45	0	4
TAP	45	96	6
TAP	45	96	7
TAP	45	144	6
TAP	45	144	7
TAP	45	240	0
TAP	45	240	1
TAP	45	288	0
TAP	45	288	1
TAP	46	0	3
TAP	46	0	4
BRK	46	96	0
BRK	46	144	0
HLD	46	192	6	72
HLD	46	264	5	72
TAP	46	336	4
STR	47	0	4
SI_	47	0	4	96	48	6
TAP	47	96	7
HLD	47	192	1	72
HLD	47	264	2	72
TAP	47	336	3
STR	48	0	3
SI_	48	0	3	96	48	0
STR	48	96	7
SI_	48	96	7	96	48	4
TAP	48	192	2
TAP	48	288	1
TAP	48	288	3
TTP	49	0	5	B	0	M1
TTP	49	0	5	E	0	M1
TTP	49	0	6	E	0	M1
TTP	49	96	2	B	0	M1
TTP	49	96	2	E	0	M1
TTP	49	96	3	E	0	M1
TTP	49	192	0	C	1	M1
TTP	49	192	1	B	0	M1
TTP	49	192	6	B	0	M1
BRK	50	0	0
BRK	50	0	7
TAP	50	96	3
TAP	50	96	4
TAP	50	192	2
TAP	50	192	5
TAP	50	288	1
TAP	50	336	1
TAP	51	0	3
TAP	51	48	3
TAP	51	96	2
TAP	51	192	0
TAP	51	192	4
TAP	51	288	6
TAP	51	336	6
TAP	52	0	4
TAP	52	48	4
TAP	52	96	5
TAP	52	192	3
TAP	52	192	7
TAP	52	288	5
TAP	52	336	5
TAP	53	0	3
TAP	53	48	3
TAP	53	96	4
TAP	53	144	4
HLD	53	192	2	48
HLD	53	240	4	48
HLD	53	288	3	48
TAP	53	336	5
BRK	54	0	4
BRK	54	0	6
TAP	54	96	1
TAP	54	96	2
TAP	54	192	0
HLD	54	192	4	96
TAP	54	288	2
TAP	54	336	2
TAP	55	0	3
TAP	55	48	3
TAP	55	96	1
TAP	55	144	1
TAP	55	192	0
TAP	55	192	3
TAP	55	288	5
TAP	55	336	5
TAP	56	0	4
TAP	56	48	4
TAP	56	96	6
TAP	56	144	6
TAP	56	192	0
TAP	56	240	0
TAP	56	288	7
TAP	56	336	7
TAP	57	0	1
TAP	57	0	6
TAP	57	96	3
TAP	57	96	4
TAP	57	192	0
TAP	57	216	7
TAP	57	240	0
TAP	57	264	7
TAP	57	288	0
BRK	58	0	1
BRK	58	0	6
TTP	59	0	5	E	0	M1
TTP	59	192	3	E	0	M1
HLD	60	0	5	1344
TTP	60	192	3	B	0	M1
TTP	60	192	4	B	0	M1
TTP	61	192	5	B	0	M1
TTP	61	192	6	B	0	M1
TTP	62	192	1	B	0	M1
TTP	62	192	2	B	0	M1
TAP	63	192	4
TAP	63	288	4
HLD	64	0	2	1344
TTP	64	192	3	B	0	M1
TTP	64	192	4	B	0	M1
TTP	65	192	1	B	0	M1
TTP	65	192	2	B	0	M1
TTP	66	192	5	B	0	M1
TTP	66	192	6	B	0	M1
TAP	67	192	3
TAP	67	288	3
TAP	68	0	3
HLD	68	0	4	192
TTP	68	192	5	B	0	M1
TTP	68	192	6	B	0	M1
HLD	69	0	3	192
TAP	69	0	4
TTP	69	192	1	B	0	M1
TTP	69	192	2	B	0	M1
TAP	70	0	4
HLD	70	0	5	192
TTP	70	192	5	B	0	M1
TTP	70	192	6	B	0	M1
HLD	71	0	2	192
TAP	71	0	3
TTP	71	192	1	B	0	M1
TTP	71	192	2	B	0	M1
TTP	72	0	4	E	0	M1
TTP	72	96	5	E	0	M1
TTP	72	192	6	E	0	M1
TTP	72	288	7	E	0	M1
TTP	73	0	0	E	0	M1
TTP	73	96	1	E	0	M1
TTP	73	192	2	E	0	M1
TTP	73	288	3	E	0	M1
STR	74	0	4
SCR	74	0	4	96	288	3
THO	75	0	0	192	C	1	M1
HLD	76	0	0	72
HLD	76	72	1	72
HLD	76	144	2	72
TAP	76	216	3
TAP	76	288	1
TAP	76	288	4
HLD	77	0	7	72
HLD	77	72	6	72
HLD	77	144	5	72
TAP	77	216	4
TAP	77	288	3
TAP	77	288	6
HLD	78	0	3	72
HLD	78	72	2	72
HLD	78	144	1	72
TAP	78	216	0
TAP	78	288	2
TAP	78	288	7
HLD	79	0	4	72
HLD	79	72	5	72
HLD	79	144	6	72
TAP	79	216	7
TAP	79	288	0
TAP	79	288	5
TAP	80	0	0
TAP	80	0	7
TAP	80	96	5
TAP	80	96	6
TAP	80	192	3
TAP	80	192	4
TAP	80	288	1
TAP	80	288	2
TAP	81	0	0
TAP	81	48	0
TAP	81	96	7
TAP	81	144	7
XTP	81	192	0
XTP	81	216	7
XTP	81	240	0
XTP	81	264	7
XST	81	288	0
SSL	81	288	0	96	192	4
TTP	82	288	0	C	1	M1
BRK	83	0	7
BRK	83	96	7
BRK	83	192	7
BRK	83	288	1
BRK	83	288	5
STR	84	0	6
SI_	84	0	6	96	48	3
STR	84	96	7
SI_	84	96	7	96	48	2
HLD	84	192	5	96
TAP	84	288	4
TAP	84	336	4
TAP	85	0	4
STR	85	96	0
SI_	85	96	0	96	48	4
TAP	85	96	6
BRK	85	192	7
BRK	85	240	7
BRK	85	288	7
STR	86	0	5
SI_	86	0	5	96	48	2
STR	86	96	1
SI_	86	96	1	96	48	6
STR	86	192	5
SI_	86	192	5	96	48	2
BRK	86	288	0
XTP	87	0	1
XTP	87	0	3
XTP	87	96	6
XTP	87	96	7
XTP	87	144	6
XTP	87	144	7
XTP	87	240	2
XTP	87	240	3
XTP	87	288	2
XTP	87	288	3
XTP	87	336	2
XTP	87	336	3
XHO	88	0	1	96
XTP	88	0	4
BRK	88	96	0
BRK	88	144	0
STR	88	192	2
SI_	88	192	2	96	48	7
TAP	88	288	6
TAP	89	0	4
TAP	89	0	5
TAP	89	96	0
TAP	89	96	1
XHO	89	192	2	48
XHO	89	192	4	48
XHO	89	264	2	48
XHO	89	264	4	48
XTP	89	336	2
XTP	89	336	4
STR	90	0	5
SI_	90	0	5	96	48	0
STR	90	96	1
SI_	90	96	1	96	48	4
XHO	90	192	6	48
XHO	90	264	6	48
XTP	90	336	6
TTP	91	0	2	B	0	M1
TTP	91	0	2	E	0	M1
TTP	91	0	3	E	0	M1
TTP	91	96	5	B	0	M1
TTP	91	96	5	E	0	M1
TTP	91	96	6	E	0	M1
TTP	91	192	0	C	1	M1
TTP	91	192	1	B	0	M1
TTP	91	192	6	B	0	M1
BRK	92	0	0
BRK	92	0	7
TAP	92	96	1
TAP	92	144	1
TAP	92	192	4
TAP	92	240	4
TAP	92	288	0
TAP	92	336	0
TAP	93	0	3
TAP	93	48	3
TAP	93	96	1
TAP	93	144	1
TAP	93	192	0
TAP	93	192	2
TAP	93	240	0
TAP	93	240	2
TAP	93	288	0
TAP	93	288	2
HLD	94	0	1	72
HLD	94	72	3	72
HLD	94	144	4	72
HLD	94	216	6	72
TAP	94	288	7
TAP	95	0	0
TAP	95	48	0
TAP	95	96	7
TAP	95	144	7
TTP	95	192	1	E	0	M1
TTP	95	240	7	E	0	M1
TTP	95	288	3	E	0	M1
TTP	95	336	5	E	0	M1
TTP	96	0	0	C	1	M1
TAP	96	96	6
TAP	96	144	6
TAP	96	192	3
TAP	96	240	3
TAP	96	288	7
TAP	96	336	7
TAP	97	0	4
TAP	97	48	4
TAP	97	96	6
TAP	97	144	6
TAP	97	192	4
TAP	97	192	7
TAP	97	240	4
TAP	97	240	7
TAP	97	288	4
TAP	97	288	7
TAP	98	0	3
TAP	98	48	4
TAP	98	96	5
TAP	98	144	6
TAP	98	192	7
TAP	98	240	0
TAP	98	288	1
TAP	98	336	2
HLD	99	0	3	48
HLD	99	0	4	48
HLD	99	96	1	48
HLD	99	96	6	48
TAP	99	192	7
TAP	99	216	0
TAP	99	240	7
TAP	99	264	0
STR	99	288	7
SI_	99	288	7	96	48	3

T_REC_TAP	262
T_REC_BRK	28
T_REC_XTP	26
T_REC_HLD	69
T_REC_XHO	11
T_REC_STR	19
T_REC_BST	0
T_REC_XST	9
T_REC_TTP	70
T_REC_THO	1
T_REC_SLD	28
T_REC_ALL	523
T_NUM_TAP	386
T_NUM_BRK	28
T_NUM_HLD	81
T_NUM_SLD	28
T_NUM_ALL	523
T_JUDGE_TAP	414
T_JUDGE_HLD	271
T_JUDGE_SLD	28
T_JUDGE_ALL	713
TTM_EACHPAIRS	94
TTM_SCR_TAP	193000
TTM_SCR_BRK	72800
TTM_SCR_HLD	81000
TTM_SCR_SLD	42000
TTM_SCR_ALL	388800
TTM_SCR_S	374450
TTM_SCR_SS	386000
TTM_RAT_ACV	10072

