VERSION	0.00.00	1.03.00
FES_MODE	0
BPM_DEF	190.000	190.000	190.000	190.000
MET_DEF	4	4
RESOLUTION	384
CLK_DEF	384
COMPATIBLE_CODE	MA2

BPM	0	0	190.000
MET	0	0	4	4

HLD	2	0	2	384
TAP	3	0	3
TAP	3	192	3
TAP	3	192	4
HLD	4	0	5	384
TAP	5	0	4
TAP	5	192	3
TAP	5	192	4
HLD	6	0	2	384
TAP	7	0	3
TAP	7	192	3
TAP	7	192	4
HLD	8	0	5	384
TAP	9	0	4
XTP	9	192	3
XTP	9	192	6
HLD	10	0	4	192
HLD	10	0	5	192
HLD	11	0	2	192
HLD	11	0	3	192
HLD	12	0	4	192
HLD	12	0	6	192
HLD	13	0	1	192
HLD	13	0	3	192
TAP	14	0	2
TAP	14	96	2
TAP	14	192	3
TAP	14	288	3
TAP	15	0	3
TAP	15	0	4
TAP	15	192	2
TAP	15	192	5
TAP	16	0	5
TAP	16	96	5
TAP	16	192	6
TAP	16	288	6
TAP	17	0	0
TAP	17	0	7
TAP	17	192	1
TAP	17	192	6
HLD	18	0	1	192
HLD	18	192	2	192
TAP	19	0	3
TAP	19	96	3
TAP	19	192	3
HLD	20	0	6	192
HLD	20	192	5	192
XTP	21	0	4
XTP	21	96	4
XTP	21	192	4
HLD	22	0	2	192
HLD	22	192	1	192
TAP	23	0	0
TAP	23	96	0
TAP	23	192	0
TAP	24	0	7
TAP	24	96	7
TAP	24	192	0
TAP	24	288	0
XTP	25	0	7
XTP	25	96	7
XTP	25	192	0
XTP	25	192	6
HLD	26	0	6	192
HLD	26	192	5	192
TAP	27	0	4
TAP	27	96	4
TAP	27	192	4
HLD	28	0	1	192
HLD	28	192	2	192
XTP	29	0	3
XTP	29	96	3
XTP	29	192	3
HLD	30	0	5	192
TAP	30	192	4
HLD	31	0	2	192
TAP	31	192	3
HLD	32	0	0	96
HLD	32	0	1	96
HLD	32	192	6	96
HLD	32	192	7	96
XTP	33	0	0
XTP	33	0	7
XTP	33	96	0
XTP	33	96	7
XTP	33	192	0
XTP	33	192	7
STR	34	0	1
SI_	34	0	1	96	192	4
STR	35	0	5
SI_	35	0	5	96	192	0
STR	36	0	1
SI_	36	0	1	96	192	4
TAP	37	0	5
TAP	37	96	5
TAP	37	192	4
TAP	37	192	6
TAP	38	0	2
TAP	38	96	2
TAP	38	192	1
TAP	38	288	1
TAP	39	0	0
TAP	39	96	0
TAP	39	192	0
TAP	39	192	7
THO	40	0	0	384	C	0	L1
TAP	41	192	0
TAP	41	192	7
TAP	41	288	0
TAP	41	288	7
BRK	42	0	1
BRK	42	0	6
TAP	42	96	2
TAP	42	192	2
TAP	42	192	3
TAP	42	288	2
TAP	42	288	3
TAP	43	0	4
TAP	43	96	5
TAP	43	192	4
TAP	43	192	5
TAP	43	288	4
TAP	43	288	5
TAP	44	0	6
TAP	44	96	6
TAP	44	96	7
TAP	44	192	1
TAP	44	288	0
TAP	44	288	1
BRK	45	0	7
BRK	45	96	7
BRK	45	192	0
BRK	45	192	6
BRK	46	0	2
BRK	46	0	5
TAP	46	96	1
TAP	46	192	0
TAP	46	192	1
TAP	46	288	0
TAP	46	288	1
TAP	47	0	7
TAP	47	96	6
TAP	47	192	6
TAP	47	192	7
TAP	47	288	6
TAP	47	288	7
TAP	48	0	5
TAP	48	96	4
TAP	48	96	5
TAP	48	192	2
TAP	48	288	2
TAP	48	288	3
HLD	49	0	3	96
HLD	49	0	4	96
HLD	49	192	2	96
HLD	49	192	5	96
BRK	50	0	0
BRK	50	0	7
TAP	50	192	1
TAP	50	192	3
TAP	50	288	2
TAP	51	0	3
TAP	51	0	4
TAP	51	96	5
TAP	51	192	4
TAP	51	192	6
TAP	51	288	5
TAP	52	0	3
TAP	52	0	4
TAP	52	96	2
TAP	52	192	1
TAP	52	192	3
TAP	52	288	2
HLD	53	0	3	96
HLD	53	0	4	96
HLD	53	192	2	96
HLD	53	192	5	96
BRK	54	0	0
BRK	54	0	7
TAP	54	192	4
TAP	54	192	6
TAP	54	288	4
TAP	54	288	6
TAP	55	0	5
TAP	55	96	4
TAP	55	192	1
TAP	55	192	3
TAP	55	288	1
TAP	55	288	3
TAP	56	0	2
TAP	56	48	2
TAP	56	96	2
TAP	56	192	4
TAP	56	240	4
TAP	56	288	4
TAP	57	0	3
TAP	57	48	3
TAP	57	96	3
TAP	57	192	5
TAP	57	240	5
TAP	57	288	5
TTP	58	0	0	C	1	L1
HLD	60	0	1	384
HLD	61	0	2	384
HLD	62	0	3	384
TAP	63	0	4
HLD	64	0	6	384
HLD	65	0	5	384
HLD	66	0	4	384
TAP	67	0	3
HLD	68	0	2	384
HLD	69	0	1	384
HLD	70	0	0	384
TAP	71	0	7
TAP	71	192	1
TAP	71	192	6
TAP	72	0	2
TAP	72	96	2
TAP	72	192	2
TAP	72	192	3
TAP	73	0	5
TAP	73	96	5
TAP	73	192	4
TAP	73	192	5
TAP	74	0	3
TAP	74	96	3
TAP	74	192	4
TAP	74	288	4
TAP	75	0	3
TAP	75	0	4
XTP	75	192	1
XTP	75	192	6
STR	76	0	0
SCR	76	0	0	96	480	5
STR	78	0	7
SCL	78	0	7	96	480	2
TAP	80	0	1
TAP	80	96	1
TAP	80	192	0
TAP	80	288	0
TAP	81	0	7
TAP	81	96	7
TAP	81	192	1
TAP	81	192	6
THO	82	0	0	384	C	1	L1
XTP	84	0	0
XTP	84	0	7
XTP	84	96	1
XTP	84	96	6
TAP	84	192	2
TAP	84	240	2
TAP	84	288	2
TAP	85	0	3
TAP	85	0	4
TAP	85	96	2
TAP	85	96	5
TAP	85	192	6
TAP	85	240	6
TAP	85	288	6
TAP	86	0	1
TAP	86	0	7
TAP	86	96	1
TAP	86	96	7
TAP	86	192	0
TAP	86	192	6
TAP	86	288	0
TAP	86	288	6
TAP	87	0	1
TAP	87	0	7
TAP	87	96	2
TAP	87	96	6
XTP	87	192	3
XTP	87	192	5
BRK	88	0	2
BRK	88	0	3
TAP	88	96	1
TAP	88	96	4
TAP	88	192	2
TAP	88	192	3
TAP	88	288	3
TAP	88	288	4
TAP	89	0	4
TAP	89	0	5
TAP	89	96	3
TAP	89	96	6
TAP	89	192	4
TAP	89	192	5
TAP	89	288	3
TAP	89	288	4
TAP	90	0	2
TAP	90	96	1
TAP	90	96	3
TAP	90	192	5
TAP	90	288	4
TAP	90	288	6
TAP	91	0	0
TAP	91	0	7
TAP	91	96	1
TAP	91	96	6
TAP	91	192	2
TAP	91	192	5
TAP	91	288	3
TAP	91	288	4
BRK	92	0	1
BRK	92	0	6
TAP	92	192	6
TAP	92	240	6
TAP	92	288	7
TAP	93	0	1
TAP	93	48	1
TAP	93	96	0
TAP	93	192	2
TAP	93	192	3
TAP	93	288	2
TAP	93	288	3
TAP	94	0	5
TAP	94	48	5
TAP	94	96	4
TAP	94	192	2
TAP	94	240	2
TAP	94	288	3
TAP	95	0	4
TAP	95	0	5
TAP	95	96	3
TAP	95	96	6
TAP	95	192	2
TAP	95	192	7
TAP	95	288	0
TAP	95	288	1
BRK	96	0	2
BRK	96	0	7
TAP	96	192	1
TAP	96	240	1
TAP	96	288	0
TAP	97	0	6
TAP	97	48	6
TAP	97	96	7
TAP	97	192	0
TAP	97	192	5
TAP	97	288	0
TAP	97	288	5
TAP	98	0	1
TAP	98	0	6
TAP	98	96	1
TAP	98	96	6
TAP	98	192	2
TAP	98	192	7
TAP	98	288	2
TAP	98	288	7
TAP	99	0	0
TAP	99	0	1
TAP	99	48	0
TAP	99	48	1
TAP	99	96	0
TAP	99	96	1
TAP	99	192	6
TAP	99	192	7
TAP	99	240	6
TAP	99	240	7
TAP	99	288	6
TAP	99	288	7
BRK	100	0	0
BRK	100	0	5

T_REC_TAP	259
T_REC_BRK	20
T_REC_XTP	26
T_REC_HLD	45
T_REC_XHO	0
T_REC_STR	5
T_REC_BST	0
T_REC_XST	0
T_REC_TTP	1
T_REC_THO	2
T_REC_SLD	5
T_REC_ALL	363
T_NUM_TAP	291
T_NUM_BRK	20
T_NUM_HLD	47
T_NUM_SLD	5
T_NUM_ALL	363
T_JUDGE_TAP	311
T_JUDGE_HLD	224
T_JUDGE_SLD	5
T_JUDGE_ALL	540
TTM_EACHPAIRS	104
TTM_SCR_TAP	145500
TTM_SCR_BRK	52000
TTM_SCR_HLD	47000
TTM_SCR_SLD	7500
TTM_SCR_ALL	252000
TTM_SCR_S	242500
TTM_SCR_SS	250000
TTM_RAT_ACV	10080

