VERSION	0.00.00	1.03.00
FES_MODE	0
BPM_DEF	190.000	190.000	190.000	190.000
MET_DEF	4	4
RESOLUTION	384
CLK_DEF	384
COMPATIBLE_CODE	MA2

BPM	0	0	190.000
MET	0	0	4	4

TAP	2	0	3
TAP	2	192	3
TAP	3	0	3
TAP	3	0	4
TAP	4	0	4
TAP	4	192	4
TAP	5	0	3
TAP	5	0	4
TAP	6	0	2
TAP	6	192	2
TAP	7	0	2
TAP	7	0	3
TAP	8	0	5
TAP	8	192	5
TAP	9	0	4
TAP	9	0	5
TAP	10	0	3
TAP	10	192	3
TAP	11	0	2
TAP	11	192	2
TAP	12	0	1
TAP	12	192	1
TAP	13	0	0
TAP	13	0	7
TAP	14	0	7
TAP	14	192	7
TAP	15	0	6
TAP	15	192	6
TAP	16	0	5
TAP	16	192	5
BRK	17	0	3
BRK	17	0	4
TTP	18	0	3	B	0	L1
TTP	19	0	2	B	0	L1
TTP	20	0	2	E	0	L1
TTP	20	0	3	B	0	L1
TTP	21	0	1	B	0	L1
TTP	21	0	4	E	0	L1
TTP	22	0	4	B	0	L1
TTP	23	0	5	B	0	L1
TTP	24	0	4	B	0	L1
TTP	24	0	6	E	0	L1
TTP	25	0	4	E	0	L1
TTP	25	0	6	B	0	L1
TTP	26	0	7	B	0	L1
TTP	27	0	6	B	0	L1
TTP	28	0	6	E	0	L1
TTP	28	0	7	B	0	L1
TTP	29	0	0	E	0	L1
TTP	29	0	5	B	0	L1
TTP	30	0	0	B	0	L1
TTP	30	0	7	B	0	L1
TTP	31	0	1	B	0	L1
TTP	31	0	6	B	0	L1
THO	32	0	0	384	C	1	L1
TAP	34	0	0
TAP	34	192	0
TAP	35	0	1
TAP	35	192	1
TAP	36	0	2
TAP	36	192	2
TAP	37	0	3
TAP	37	192	3
TAP	38	0	4
TAP	38	192	4
TAP	39	0	5
TAP	39	192	5
HLD	40	0	6	384
HLD	40	0	7	384
STR	42	0	7
SI_	42	0	7	96	288	3
TAP	44	0	0
TAP	44	192	0
TAP	45	0	0
TAP	45	0	1
STR	46	0	0
SI_	46	0	0	96	288	4
TAP	48	0	7
TAP	48	192	7
BRK	49	0	6
BRK	49	0	7
XTP	50	0	7
TAP	50	192	7
TAP	51	0	7
TAP	52	0	6
TAP	52	192	6
TAP	53	0	6
TAP	53	0	7
XTP	54	0	5
TAP	54	192	5
TAP	55	0	5
TAP	56	0	4
TAP	56	192	4
TAP	57	0	3
TAP	57	192	3
BRK	58	0	2
BRK	58	0	5
TAP	60	0	4
TAP	60	192	4
TAP	61	0	3
TAP	61	0	4
TAP	62	0	3
TAP	62	192	3
TAP	63	0	3
TAP	63	0	4
TAP	64	0	5
TAP	64	192	5
TAP	65	0	4
TAP	65	0	5
TAP	66	0	2
TAP	66	192	2
TAP	67	0	2
TAP	67	0	3
TAP	68	0	4
TAP	68	192	4
TAP	69	0	5
TAP	69	192	5
TAP	70	0	6
TAP	70	192	6
TAP	71	0	0
TAP	71	0	7
TAP	72	0	0
TAP	72	192	0
TAP	73	0	1
TAP	73	192	1
TAP	74	0	2
TAP	74	192	2
BRK	75	0	3
BRK	75	0	4
STR	76	0	3
SI_	76	0	3	96	288	0
STR	78	0	4
SI_	78	0	4	96	288	7
TAP	80	0	0
TAP	80	96	0
TAP	80	192	0
TAP	81	0	7
TAP	81	96	7
TAP	81	192	7
STR	82	0	0
SI_	82	0	0	96	288	4
STR	84	0	5
SI_	84	0	5	96	288	2
STR	86	0	1
SI_	86	0	1	96	288	5
STR	88	0	7
SI_	88	0	7	96	288	3
STR	90	0	2
SI_	90	0	2	96	288	6
XTP	92	0	7
TAP	92	192	7
TAP	93	0	6
TAP	93	192	6
TAP	94	0	5
TAP	94	192	5
TAP	95	0	4
TAP	95	192	3
TAP	95	192	4
TAP	96	0	3
TAP	96	96	3
TAP	96	192	3
TAP	97	0	2
TAP	97	96	2
TAP	97	192	2
TAP	98	0	1
TAP	98	96	1
TAP	98	192	0
TAP	98	288	0
TAP	99	0	7
TAP	99	96	7
TAP	99	192	0
TAP	99	288	0
XTP	100	0	1
XTP	100	0	6

T_REC_TAP	118
T_REC_BRK	8
T_REC_XTP	5
T_REC_HLD	2
T_REC_XHO	0
T_REC_STR	9
T_REC_BST	0
T_REC_XST	0
T_REC_TTP	22
T_REC_THO	1
T_REC_SLD	9
T_REC_ALL	174
T_NUM_TAP	154
T_NUM_BRK	8
T_NUM_HLD	3
T_NUM_SLD	9
T_NUM_ALL	174
T_JUDGE_TAP	162
T_JUDGE_HLD	24
T_JUDGE_SLD	9
T_JUDGE_ALL	195
TTM_EACHPAIRS	19
TTM_SCR_TAP	77000
TTM_SCR_BRK	20800
TTM_SCR_HLD	3000
TTM_SCR_SLD	13500
TTM_SCR_ALL	114300
TTM_SCR_S	110100
TTM_SCR_SS	113500
TTM_RAT_ACV	10070

