VERSION	0.00.00	1.03.00
FES_MODE	0
BPM_DEF	210.000	210.000	210.000	210.000
MET_DEF	4	4
RESOLUTION	384
CLK_DEF	384
COMPATIBLE_CODE	MA2

BPM	0	0	210.000
MET	0	0	4	4

TAP	1	0	5
TAP	1	48	5
TAP	1	96	5
TAP	1	144	4
TAP	1	192	4
TAP	1	240	4
TAP	1	288	2
TAP	1	336	2
TAP	2	0	2
TAP	2	48	3
TAP	2	96	3
TAP	2	144	3
TAP	2	192	4
TAP	2	240	4
TAP	2	288	3
TAP	2	336	3
TAP	3	0	5
TAP	3	48	5
TAP	3	96	5
TAP	3	144	4
TAP	3	192	4
TAP	3	240	4
TAP	3	288	2
TAP	3	336	2
TAP	4	0	2
TAP	4	48	3
TAP	4	96	3
TAP	4	144	3
TAP	4	192	4
TAP	4	240	4
XTP	4	288	2
XTP	4	288	5
STR	5	0	1
SI_	5	0	1	96	48	3
TAP	5	48	0
TAP	5	96	1
STR	5	144	7
SI_	5	144	7	96	48	3
TAP	5	192	0
TAP	5	240	7
STR	5	288	1
SI_	5	288	1	96	48	3
TAP	5	336	0
TAP	6	0	1
STR	6	48	6
SI_	6	48	6	96	48	3
TAP	6	96	7
TAP	6	144	6
TAP	6	192	0
TAP	6	240	0
XTP	6	288	1
XTP	6	288	7
STR	7	0	6
SI_	7	0	6	96	48	4
TAP	7	48	7
TAP	7	96	6
STR	7	144	0
SI_	7	144	0	96	48	4
TAP	7	192	7
TAP	7	240	0
STR	7	288	6
SI_	7	288	6	96	48	4
TAP	7	336	7
TAP	8	0	6
STR	8	48	1
SI_	8	48	1	96	48	4
TAP	8	96	0
TAP	8	144	1
TAP	8	192	7
TAP	8	240	7
XTP	8	288	0
XTP	8	288	6
STR	9	0	1
SI_	9	0	1	96	48	3
TAP	9	48	0
TAP	9	96	1
STR	9	144	7
SI_	9	144	7	96	48	3
TAP	9	192	0
TAP	9	240	7
STR	9	288	1
SI_	9	288	1	96	48	3
TAP	9	336	0
TAP	10	0	1
STR	10	48	6
SI_	10	48	6	96	48	3
TAP	10	96	7
TAP	10	144	6
TAP	10	192	0
TAP	10	240	0
XTP	10	288	1
XTP	10	288	7
STR	11	0	2
SI_	11	0	2	96	48	0
TAP	11	48	3
TAP	11	96	2
STR	11	144	5
SI_	11	144	5	96	48	7
TAP	11	192	4
TAP	11	240	5
TAP	11	288	2
TAP	11	336	2
TAP	12	0	0
TAP	12	0	1
TAP	12	64	2
TAP	12	64	7
TAP	12	128	3
TAP	12	128	6
TAP	12	192	0
TAP	12	192	7
TAP	12	256	1
TAP	12	256	6
BRK	12	320	2
BRK	12	320	5
TAP	13	96	3
HLD	13	96	4	288
TAP	13	192	2
TAP	13	288	1
HLD	14	0	0	384
TAP	14	96	3
TAP	14	192	5
TAP	14	288	6
HLD	15	0	7	384
TAP	15	96	4
TAP	15	192	2
TAP	15	288	1
TAP	16	0	0
TAP	16	96	1
TAP	16	96	6
TAP	16	192	3
TAP	16	240	4
TAP	16	288	2
TAP	16	288	5
HLD	17	0	2	384
TAP	17	0	4
TAP	17	96	3
TAP	17	192	5
TAP	17	288	6
HLD	18	0	7	192
TAP	18	96	4
TAP	18	192	3
XTP	18	288	2
XTP	18	288	5
TAP	19	0	1
TAP	19	0	3
HLD	19	48	1	48
HLD	19	48	3	48
TAP	19	192	4
TAP	19	192	6
HLD	19	240	4	48
HLD	19	240	6	48
TAP	20	0	0
TAP	20	48	0
TAP	20	96	7
TAP	20	144	7
XTP	20	192	1
XTP	20	192	6
TAP	20	288	3
TAP	20	288	4
TAP	21	96	1
HLD	21	96	7	96
TAP	21	192	3
TAP	21	240	3
HLD	21	288	4	96
TAP	22	0	0
TAP	22	48	0
TAP	22	96	7
TAP	22	144	7
TAP	22	192	3
TAP	22	240	4
TAP	22	288	2
TAP	22	288	5
TAP	23	0	1
HLD	23	0	7	96
TAP	23	96	4
TAP	23	192	1
HLD	23	192	4	96
TAP	23	288	0
TAP	23	336	0
TAP	24	0	1
TAP	24	0	3
TAP	24	96	5
TAP	24	144	4
TAP	24	144	6
TAP	24	240	2
TAP	24	288	1
TAP	24	288	3
HLD	25	0	0	96
TAP	25	96	5
HLD	25	192	3	96
TAP	25	192	7
TAP	25	288	6
TAP	25	336	6
TAP	26	0	0
TAP	26	48	0
TAP	26	96	4
HLD	26	144	3	96
TAP	26	240	7
TAP	26	288	7
TAP	27	0	4
TAP	27	0	6
HLD	27	48	4	48
HLD	27	48	6	48
TAP	27	192	1
TAP	27	192	3
HLD	27	240	1	48
HLD	27	240	3	48
TAP	28	0	6
TAP	28	0	7
TAP	28	48	6
TAP	28	96	0
TAP	28	96	1
TAP	28	144	1
BRK	28	192	2
BRK	28	192	6
TAP	29	0	1
TAP	29	0	3
TAP	29	48	1
TAP	29	48	3
TAP	29	144	2
TAP	29	144	4
STR	29	240	3
SCR	29	240	3	96	192	2
TAP	29	240	5
HLD	29	336	6	144
XTP	30	192	7
XTP	30	240	7
XTP	30	288	7
TAP	31	0	4
TAP	31	0	6
TAP	31	48	4
TAP	31	48	6
TAP	31	144	3
TAP	31	144	5
TAP	31	240	2
STR	31	240	4
SCL	31	240	4	96	192	5
HLD	31	336	1	144
XTP	32	192	0
XTP	32	240	0
XTP	32	288	0
STR	33	0	1
SI_	33	0	1	96	48	3
TAP	33	0	3
XTP	33	96	7
TAP	33	192	4
STR	33	192	6
SI_	33	192	6	96	48	4
XTP	33	288	0
STR	34	0	1
SCR	34	0	1	96	96	4
STR	34	96	4
SCR	34	96	4	96	96	7
STR	34	192	7
SCR	34	192	7	96	96	2
STR	34	288	2
SUR	34	288	2	96	192	3
TAP	35	0	5
XTP	35	144	6
XTP	35	168	5
XTP	35	192	4
BRK	36	288	2
BRK	36	288	5
STR	37	0	0
SI_	37	0	0	96	48	4
TAP	37	48	0
STR	37	96	5
SI_	37	96	5	96	48	1
TAP	37	144	5
STR	37	192	7
SI_	37	192	7	96	48	2
TAP	37	240	7
STR	37	288	4
SCR	37	288	4	96	48	7
TAP	37	336	4
STR	38	0	0
SI_	38	0	0	96	48	2
SI_	38	0	0	96	48	3
XTP	38	96	0
STR	38	192	0
SI_	38	192	0	96	48	5
SI_	38	192	0	96	48	6
XTP	38	288	0
STR	39	0	7
SI_	39	0	7	96	48	3
TAP	39	48	7
STR	39	96	2
SI_	39	96	2	96	48	6
TAP	39	144	2
STR	39	192	0
SI_	39	192	0	96	48	5
TAP	39	240	0
STR	39	288	3
SCL	39	288	3	96	48	0
TAP	39	336	3
STR	40	0	7
SI_	40	0	7	96	48	2
SI_	40	0	7	96	48	4
BRK	40	96	7
TAP	40	192	1
TAP	40	192	3
TAP	40	288	4
TAP	40	288	6
STR	41	0	0
SCR	41	0	0	96	48	2
STR	41	0	4
SCR	41	0	4	96	48	6
TAP	41	96	0
TAP	41	96	4
STR	41	192	0
SI_	41	192	0	96	48	5
STR	41	192	4
SI_	41	192	4	96	48	1
TAP	41	288	0
TAP	41	288	4
STR	42	0	0
SCL	42	0	0	96	48	5
STR	42	96	3
SCL	42	96	3	96	48	0
STR	42	192	6
SCL	42	192	6	96	48	3
TAP	42	288	7
STR	43	0	0
SI_	43	0	0	96	96	5
STR	43	96	5
SI_	43	96	5	96	96	2
STR	43	192	2
SI_	43	192	2	96	96	7
TAP	43	288	7
TAP	44	0	6
TAP	44	24	5
TAP	44	48	4
HLD	44	72	3	72
TAP	44	144	0
TAP	44	168	1
TAP	44	192	2
HLD	44	216	3	72
BRK	44	288	7
STR	45	0	0
SI_	45	0	0	96	48	4
TAP	45	48	0
STR	45	96	5
SI_	45	96	5	96	48	1
TAP	45	144	5
STR	45	192	7
SI_	45	192	7	96	48	2
TAP	45	240	7
STR	45	288	4
SCR	45	288	4	96	48	7
TAP	45	336	4
STR	46	0	0
SI_	46	0	0	96	48	2
SI_	46	0	0	96	48	4
XTP	46	96	0
STR	46	192	0
SI_	46	192	0	96	48	4
SI_	46	192	0	96	48	6
XTP	46	288	0
STR	47	0	7
SI_	47	0	7	96	48	3
TAP	47	48	7
STR	47	96	2
SI_	47	96	2	96	48	6
TAP	47	144	2
STR	47	192	0
SI_	47	192	0	96	48	5
TAP	47	240	0
STR	47	288	3
SCL	47	288	3	96	48	0
TAP	47	336	3
STR	48	0	7
SF_	48	0	7	96	48	3
BRK	48	96	7
TAP	48	192	0
TAP	48	192	5
TAP	48	288	2
TAP	48	288	7
STR	49	0	0
SI_	49	0	0	96	48	3
STR	49	0	6
SI_	49	0	6	96	48	3
TAP	49	96	0
TAP	49	96	6
STR	49	192	1
SI_	49	192	1	96	48	4
STR	49	192	7
SI_	49	192	7	96	48	4
TAP	49	288	1
TAP	49	288	7
TAP	50	0	0
STR	50	0	6
SI_	50	0	6	96	48	3
STR	50	96	1
SI_	50	96	1	96	48	4
TAP	50	96	6
TAP	50	192	1
STR	50	192	7
SI_	50	192	7	96	48	3
BRK	50	288	2
BRK	50	288	7
STR	51	0	1
SI_	51	0	1	96	48	4
XTP	51	96	1
TTP	51	108	2	B	0	M1
TTP	51	114	4	E	0	M1
STR	51	144	6
SI_	51	144	6	96	48	3
XTP	51	240	6
TTP	51	252	5	B	0	M1
TTP	51	258	4	E	0	M1
STR	51	288	1
SI_	51	288	1	96	48	5
XTP	52	0	1
TTP	52	6	1	B	0	M1
TTP	52	18	5	B	0	M1
STR	52	48	7
SI_	52	48	7	96	48	3
XTP	52	144	7
TTP	52	150	7	B	0	M1
TTP	52	162	3	B	0	M1
STR	52	192	0
SF_	52	192	0	96	48	4
BRK	52	288	0
TTP	52	294	0	C	1	M1
TTP	52	294	2	B	0	M1
TTP	52	294	3	E	0	M1
TTP	52	294	6	B	0	M1
TTP	52	294	6	E	0	M1
XHO	53	0	1	96
XHO	53	0	7	96
TAP	53	192	1
TAP	53	192	3
TAP	53	256	3
TAP	53	256	4
TAP	53	320	4
TAP	53	320	6
TAP	54	0	1
TAP	54	0	6
TAP	54	192	2
TAP	54	216	3
TAP	54	240	2
TAP	54	264	3
BRK	54	288	1
XTP	55	0	0
TAP	55	0	4
TAP	55	48	4
TAP	55	96	4
TAP	55	144	4
XTP	55	144	6
TAP	55	192	4
TAP	55	240	4
XTP	55	288	1
TAP	55	288	4
TAP	55	336	4
TAP	56	0	4
TAP	56	48	4
XTP	56	48	6
TAP	56	96	4
TAP	56	144	4
XTP	56	192	0
TAP	56	192	4
TAP	56	240	4
TAP	56	288	4
XTP	56	288	6
TAP	56	336	4
XTP	57	0	2
TAP	57	0	4
TAP	57	192	4
TAP	57	192	6
TAP	57	256	3
TAP	57	256	4
TAP	57	320	1
TAP	57	320	3
TAP	58	0	1
TAP	58	0	6
TAP	58	192	5
TAP	58	216	4
TAP	58	240	5
TAP	58	264	4
BRK	58	288	6
TAP	59	0	3
XTP	59	0	7
TAP	59	48	3
TAP	59	96	3
XTP	59	144	1
TAP	59	144	3
TAP	59	192	3
TAP	59	240	3
TAP	59	288	3
XTP	59	288	6
TAP	59	336	3
TAP	60	0	3
XTP	60	48	1
TAP	60	48	3
TAP	60	96	3
TAP	60	144	3
TAP	60	192	3
XTP	60	192	7
TAP	60	240	3
XTP	60	288	1
TAP	60	288	3
TAP	60	336	3
TAP	61	0	3
XTP	61	0	5
TAP	61	192	0
TAP	61	192	2
TAP	61	256	0
TAP	61	256	7
TAP	61	320	5
TAP	61	320	7
TAP	62	0	2
TAP	62	0	5
TAP	62	192	1
TAP	62	216	0
TAP	62	240	1
TAP	62	264	0
BRK	62	288	2
XTP	63	0	3
TAP	63	0	7
TAP	63	48	7
TAP	63	96	7
XTP	63	144	5
TAP	63	144	7
TAP	63	192	7
TAP	63	240	7
XTP	63	288	2
TAP	63	288	7
TAP	63	336	7
TAP	64	0	7
XTP	64	48	5
TAP	64	48	7
TAP	64	96	7
TAP	64	144	7
XTP	64	192	3
TAP	64	192	7
TAP	64	240	7
XTP	64	288	5
TAP	64	288	7
TAP	64	336	7
XTP	65	0	1
TAP	65	0	7
TAP	65	192	6
TAP	65	192	7
TAP	65	256	0
TAP	65	256	1
TAP	65	320	2
TAP	65	320	3
TAP	66	0	4
TAP	66	0	5
BRK	66	192	1
BRK	66	192	6
XTP	67	0	1
XTP	67	0	3
TAP	67	48	2
TAP	67	96	3
XTP	67	144	4
XTP	67	144	6
TAP	67	192	5
TAP	67	240	4
XTP	67	288	0
XTP	67	288	3
TAP	67	336	1
TAP	68	0	2
XTP	68	48	3
XTP	68	48	7
TAP	68	96	6
TAP	68	144	5
XTP	68	192	0
XTP	68	192	4
TAP	68	240	1
XTP	68	288	2
XTP	68	288	6
TAP	68	336	7
XTP	69	0	4
XTP	69	0	6
TAP	69	48	5
TAP	69	96	4
XTP	69	144	1
XTP	69	144	3
TAP	69	192	2
TAP	69	240	3
XTP	69	288	4
XTP	69	288	7
TAP	69	336	6
TAP	70	0	5
XTP	70	48	0
XTP	70	48	4
TAP	70	96	1
TAP	70	144	2
XTP	70	192	3
XTP	70	192	7
TAP	70	240	6
XTP	70	288	1
XTP	70	288	5
TAP	70	336	0
XTP	71	0	1
XTP	71	0	3
TAP	71	48	1
TAP	71	96	1
XTP	71	144	0
XTP	71	144	4
TAP	71	192	0
TAP	71	240	0
XTP	71	288	1
XTP	71	288	5
TAP	71	336	1
TAP	72	0	1
XTP	72	48	2
XTP	72	48	6
TAP	72	96	2
TAP	72	144	2
XTP	72	192	3
XTP	72	192	7
TAP	72	240	6
XTP	72	288	1
XTP	72	288	5
TAP	72	336	4
XTP	73	0	0
XTP	73	0	3
TAP	73	48	3
TAP	73	96	3
XTP	73	144	1
XTP	73	144	4
TAP	73	192	4
TAP	73	240	4
XTP	73	288	2
XTP	73	288	5
TAP	73	336	5
TAP	74	0	5
XTP	74	48	3
XTP	74	48	6
TAP	74	96	6
TAP	74	144	6
TAP	74	192	0
TAP	74	192	7
TAP	74	240	0
TAP	74	240	7
BRK	74	288	1
BRK	74	288	6
HLD	75	0	3	576
STR	75	0	4
SCR	75	0	4	96	480	1
STR	77	0	2
SLL	77	0	2	96	480	4
HLD	77	0	3	576
HLD	79	0	2	384
STR	79	0	4
SXL	79	0	4	96	480	7
STR	80	192	1
SCL	80	192	1	96	672	2
HLD	81	0	7	576
STR	83	0	0
SCR	83	0	0	96	480	4
TAP	83	96	5
TAP	83	192	5
TAP	83	288	5
TAP	84	0	5
TAP	84	96	5
TAP	84	192	5
TAP	84	288	5
STR	85	0	5
SCL	85	0	5	96	480	1
TAP	85	0	6
TAP	85	96	6
TAP	85	192	6
TAP	85	288	6
TAP	86	0	6
TAP	86	96	6
TAP	86	192	6
TAP	86	288	6
STR	87	0	0
SI_	87	0	0	96	240	3
TTP	87	96	5	E	0	M1
TTP	87	192	5	B	0	M1
TTP	87	288	6	B	0	M1
STR	88	0	7
SI_	88	0	7	96	240	4
TTP	88	96	3	E	0	M1
TTP	88	192	2	B	0	M1
TTP	88	288	1	B	0	M1
STR	89	0	0
SI_	89	0	0	96	192	3
STR	89	96	4
SI_	89	96	4	96	96	7
TTP	89	192	0	C	0	M1
TTP	89	198	2	E	0	M1
TTP	89	204	5	B	0	M1
TTP	89	210	2	B	0	M1
TTP	89	216	6	E	0	M1
BRK	91	0	0
HLD	97	0	2	288
HLD	97	0	5	288
TAP	98	0	2
TAP	98	0	5
STR	98	96	3
SI_	98	96	3	96	48	0
STR	98	96	4
SI_	98	96	4	96	48	7
XTP	98	192	3
XTP	98	192	4
BRK	98	288	1
BRK	98	288	6
STR	99	0	7
SI_	99	0	7	96	48	2
TAP	99	48	7
STR	99	96	4
SI_	99	96	4	96	48	1
TAP	99	144	4
STR	99	192	6
SI_	99	192	6	96	48	2
TAP	99	240	6
STR	99	288	0
SCL	99	288	0	96	48	5
TAP	99	336	0
STR	100	0	3
SI_	100	0	3	96	48	0
SI_	100	0	3	96	48	6
XTP	100	96	3
STR	100	192	7
SF_	100	192	7	96	48	3
BRK	100	288	7
STR	101	0	0
SI_	101	0	0	96	48	5
TAP	101	48	0
STR	101	96	3
SI_	101	96	3	96	48	6
TAP	101	144	3
STR	101	192	1
SI_	101	192	1	96	48	5
TAP	101	240	1
STR	101	288	7
SCR	101	288	7	96	48	2
TAP	101	336	7
STR	102	0	4
SI_	102	0	4	96	48	1
SI_	102	0	4	96	48	7
XTP	102	96	4
TAP	102	192	4
TAP	102	192	6
TAP	102	288	1
TAP	102	288	3
STR	103	0	3
SCL	103	0	3	96	48	1
STR	103	0	7
SCL	103	0	7	96	48	5
TAP	103	96	3
TAP	103	96	7
STR	103	192	3
SI_	103	192	3	96	48	6
STR	103	192	7
SI_	103	192	7	96	48	2
TAP	103	288	3
TAP	103	288	7
STR	104	0	7
SCR	104	0	7	96	48	2
STR	104	96	4
SCR	104	96	4	96	48	7
STR	104	192	1
SCR	104	192	1	96	48	4
TAP	104	288	0
STR	105	0	7
SI_	105	0	7	96	96	2
STR	105	96	2
SI_	105	96	2	96	96	5
STR	105	192	5
SI_	105	192	5	96	96	0
TAP	105	288	3
TAP	106	0	3
TAP	106	24	2
TAP	106	48	1
HLD	106	72	0	72
TAP	106	144	3
TAP	106	168	4
TAP	106	192	5
TAP	106	216	6
BRK	106	288	3
BRK	106	288	7
STR	107	0	1
SI_	107	0	1	96	48	5
TAP	107	48	1
STR	107	96	3
SI_	107	96	3	96	48	6
TAP	107	144	3
STR	107	192	4
SI_	107	192	4	96	48	1
TAP	107	240	4
STR	107	288	7
SCR	107	288	7	96	48	2
TAP	107	336	7
STR	108	0	3
SI_	108	0	3	96	48	0
SI_	108	0	3	96	48	6
XTP	108	96	3
STR	108	192	7
SF_	108	192	7	96	48	3
BRK	108	288	7
STR	109	0	6
SI_	109	0	6	96	48	2
TAP	109	48	6
STR	109	96	4
SI_	109	96	4	96	48	1
TAP	109	144	4
STR	109	192	3
SI_	109	192	3	96	48	6
TAP	109	240	3
TAP	109	288	0
TAP	109	336	0
TAP	110	0	1
TAP	110	0	4
TAP	110	48	2
TAP	110	72	3
TAP	110	96	2
TAP	110	144	1
TAP	110	144	4
TAP	110	240	4
TAP	110	240	5
BRK	110	288	3
BRK	110	288	6
STR	111	0	6
SI_	111	0	6	96	48	3
STR	111	0	7
SI_	111	0	7	96	48	3
TAP	111	96	6
TAP	111	96	7
STR	111	192	0
SI_	111	192	0	96	48	4
STR	111	192	1
SI_	111	192	1	96	48	4
TAP	111	288	0
TAP	111	288	1
STR	112	0	5
SI_	112	0	5	96	48	0
TAP	112	0	7
STR	112	96	1
SI_	112	96	1	96	48	6
TAP	112	96	5
STR	112	192	0
SI_	112	192	0	96	48	3
SI_	112	192	0	96	48	5
TAP	112	192	1
BRK	112	288	0
STR	113	0	1
SI_	113	0	1	96	48	4
XTP	113	96	1
TTP	113	108	2	B	0	M1
TTP	113	114	4	E	0	M1
STR	113	144	6
SI_	113	144	6	96	48	3
XTP	113	240	6
TTP	113	252	5	B	0	M1
TTP	113	258	4	E	0	M1
STR	113	288	1
SI_	113	288	1	96	48	5
XTP	114	0	1
TTP	114	6	1	B	0	M1
TTP	114	18	5	B	0	M1
STR	114	48	7
SI_	114	48	7	96	48	3
XTP	114	144	7
TTP	114	150	0	C	0	M1
TTP	114	162	3	B	0	M1
STR	114	192	0
SF_	114	192	0	96	48	4
BRK	114	288	0
TTP	114	294	2	B	0	M1
TTP	114	294	3	E	0	M1
TTP	114	294	6	B	0	M1
TTP	114	294	6	E	0	M1
STR	115	0	7
SI_	115	0	7	96	48	3
XTP	115	96	7
TTP	115	108	0	C	0	M1
TTP	115	114	3	B	0	M1
STR	115	144	1
SI_	115	144	1	96	48	4
XTP	115	240	1
TTP	115	252	2	B	0	M1
TTP	115	258	4	E	0	M1
STR	115	288	6
SI_	115	288	6	96	48	2
XTP	116	0	6
TTP	116	6	6	B	0	M1
TTP	116	18	2	B	0	M1
STR	116	48	0
SI_	116	48	0	96	48	4
XTP	116	144	0
TTP	116	150	0	B	0	M1
TTP	116	162	4	B	0	M1
STR	116	192	7
SF_	116	192	7	96	48	3
BRK	116	288	7
TTP	116	294	1	B	0	M1
TTP	116	294	2	E	0	M1
TTP	116	294	3	E	0	M1
TTP	116	294	4	E	0	M1
TTP	116	294	5	B	0	M1
TTP	116	294	5	E	0	M1
TAP	117	0	6
TAP	117	48	6
TAP	117	96	6
TAP	117	144	0
TAP	117	192	0
TAP	117	240	0
TAP	117	288	2
TAP	117	336	2
TAP	118	0	2
TAP	118	48	4
TAP	118	96	4
TAP	118	144	4
TAP	118	192	6
TAP	118	240	6
XTP	118	288	6
XTP	118	288	7
TAP	119	0	1
TAP	119	48	1
TAP	119	96	1
TAP	119	144	7
TAP	119	192	7
TAP	119	240	7
TAP	119	288	5
TAP	119	336	5
TAP	120	0	5
TAP	120	48	3
TAP	120	96	3
TAP	120	144	3
TAP	120	192	1
TAP	120	240	1
BRK	120	288	2
BRK	120	288	7
STR	121	0	5
SI_	121	0	5	96	48	0
TAP	121	48	4
TAP	121	96	5
STR	121	144	2
SI_	121	144	2	96	48	7
TAP	121	192	3
TAP	121	240	2
STR	121	288	4
SI_	121	288	4	96	48	0
TAP	121	336	3
TAP	122	0	4
STR	122	48	2
SI_	122	48	2	96	48	7
TAP	122	96	3
TAP	122	144	2
TAP	122	192	4
TAP	122	240	4
XTP	122	288	3
XTP	122	288	5
STR	123	0	1
SI_	123	0	1	96	48	4
TAP	123	48	0
TAP	123	96	1
STR	123	144	6
SI_	123	144	6	96	48	3
TAP	123	192	7
TAP	123	240	6
TAP	123	288	1
TAP	123	336	1
TAP	124	0	0
TAP	124	0	1
TAP	124	64	2
TAP	124	64	7
TAP	124	128	3
TAP	124	128	6
TAP	124	192	6
TAP	124	192	7
TAP	124	256	0
TAP	124	256	5
BRK	124	320	1
BRK	124	320	4

T_REC_TAP	469
T_REC_BRK	35
T_REC_XTP	113
T_REC_HLD	31
T_REC_XHO	2
T_REC_STR	131
T_REC_BST	0
T_REC_XST	0
T_REC_TTP	50
T_REC_THO	0
T_REC_SLD	140
T_REC_ALL	971
T_NUM_TAP	763
T_NUM_BRK	35
T_NUM_HLD	33
T_NUM_SLD	140
T_NUM_ALL	971
T_JUDGE_TAP	798
T_JUDGE_HLD	128
T_JUDGE_SLD	140
T_JUDGE_ALL	1066
TTM_EACHPAIRS	163
TTM_SCR_TAP	381500
TTM_SCR_BRK	91000
TTM_SCR_HLD	33000
TTM_SCR_SLD	210000
TTM_SCR_ALL	715500
TTM_SCR_S	690650
TTM_SCR_SS	712000
TTM_RAT_ACV	10049

