VERSION	0.00.00	1.03.00
FES_MODE	0
BPM_DEF	210.000	210.000	210.000	210.000
MET_DEF	4	4
RESOLUTION	384
CLK_DEF	384
COMPATIBLE_CODE	MA2

BPM	0	0	210.000
MET	0	0	4	4

XTP	5	0	1
XTP	5	0	6
TAP	5	96	2
TAP	5	144	2
TAP	5	144	3
TAP	5	240	4
TAP	5	288	3
TAP	5	288	4
TAP	6	0	2
TAP	6	48	2
TAP	6	48	3
TAP	6	144	4
TAP	6	192	3
TAP	6	192	4
TAP	6	288	5
TAP	7	0	3
TAP	7	0	6
TAP	7	96	5
TAP	7	144	4
TAP	7	144	5
TAP	7	240	3
TAP	7	288	3
TAP	7	288	4
TAP	8	0	5
TAP	8	48	4
TAP	8	48	5
TAP	8	144	3
TAP	8	192	3
TAP	8	192	4
TAP	8	288	2
TAP	9	0	1
TAP	9	0	4
TAP	9	96	2
TAP	9	144	2
TAP	9	144	3
TAP	9	240	5
TAP	9	288	4
TAP	9	288	5
TAP	10	0	2
TAP	10	48	2
TAP	10	48	3
TAP	10	144	5
TAP	10	192	4
TAP	10	192	5
TAP	10	288	3
TAP	10	288	6
TAP	11	0	0
TAP	11	0	7
TAP	11	96	1
TAP	11	144	1
TAP	11	144	3
TAP	11	240	6
TAP	11	288	4
TAP	11	288	6
XTP	12	0	5
XTP	12	64	6
XTP	12	128	7
XTP	12	192	0
XTP	12	256	1
XTP	12	320	2
XTP	12	320	5
XHO	13	96	3	384
TAP	13	96	4
TAP	13	192	4
TAP	13	288	4
TAP	14	0	5
TAP	14	96	5
TAP	14	192	4
TAP	14	192	5
TAP	14	288	3
HLD	15	0	2	288
TAP	15	96	4
TAP	15	192	4
TAP	15	288	3
TAP	16	0	1
TAP	16	0	3
TAP	16	96	0
TAP	16	192	7
TAP	16	288	7
TAP	17	0	2
TAP	17	96	2
TAP	17	192	3
TAP	17	288	1
TAP	17	288	4
TAP	18	0	5
TAP	18	96	5
TAP	18	192	4
TAP	18	288	3
TAP	18	288	6
XTP	19	0	1
XTP	19	0	7
XTP	19	48	1
XTP	19	48	7
XTP	19	192	0
XTP	19	192	6
XTP	19	240	0
XTP	19	240	6
TAP	20	0	4
TAP	20	0	5
TAP	20	96	3
TAP	20	96	4
XTP	20	192	2
XTP	20	192	3
HLD	21	0	5	192
TAP	21	96	3
TAP	21	192	4
TAP	21	288	6
HLD	22	0	2	192
TAP	22	96	4
TAP	22	192	3
TAP	22	288	1
HLD	23	0	6	192
TAP	23	96	4
TAP	23	192	5
TAP	23	288	7
HLD	24	0	4	192
TAP	24	0	6
TAP	24	96	6
TAP	24	192	5
TAP	24	288	3
TAP	24	288	4
HLD	25	0	1	192
TAP	25	96	3
TAP	25	192	4
TAP	25	288	2
TAP	25	288	5
HLD	26	0	6	192
TAP	26	96	7
TAP	26	192	7
TAP	26	288	0
TAP	26	288	5
XTP	27	0	1
XTP	27	0	3
XTP	27	48	1
XTP	27	48	3
XTP	27	192	4
XTP	27	192	6
XTP	27	240	4
XTP	27	240	6
TAP	28	0	2
TAP	28	0	5
TAP	28	96	3
TAP	28	96	4
BRK	28	192	1
BRK	28	192	6
XTP	29	0	6
XHO	29	48	6	288
TTP	29	144	5	E	0	M1
TTP	29	240	3	E	0	M1
THO	29	336	0	240	C	0	M1
TTP	30	192	6	B	0	M1
TTP	30	192	7	E	0	M1
XTP	31	0	1
XHO	31	48	1	288
TTP	31	144	3	E	0	M1
TTP	31	240	5	E	0	M1
THO	31	336	0	240	C	0	M1
XTP	32	192	0
XTP	32	288	0
TAP	33	0	1
TAP	33	0	7
TAP	33	96	2
TAP	33	192	0
TAP	33	192	6
TAP	33	288	5
TAP	34	0	1
TAP	34	0	4
TAP	34	96	0
TAP	34	192	3
TAP	34	192	6
STR	34	288	7
SCL	34	288	7	96	240	0
TAP	36	0	3
TAP	36	0	4
TAP	36	192	1
TAP	36	192	6
BRK	36	288	0
BRK	36	288	7
TAP	37	0	1
TAP	37	48	1
TAP	37	96	3
STR	37	192	2
SI_	37	192	2	96	48	0
STR	37	192	7
SI_	37	192	7	96	48	3
XTP	38	0	1
XTP	38	0	4
TAP	38	96	1
TAP	38	192	0
TAP	38	192	1
TAP	38	288	2
TAP	38	288	3
TAP	39	0	5
TAP	39	48	5
TAP	39	96	4
STR	39	192	3
SI_	39	192	3	96	48	7
STR	39	192	6
SI_	39	192	6	96	48	4
XTP	40	0	0
XTP	40	0	5
TAP	40	96	5
TAP	40	192	4
TAP	40	192	6
TAP	40	288	3
TAP	40	288	4
XTP	41	0	2
HLD	41	0	3	96
TAP	41	96	0
HLD	41	192	4	96
TAP	41	192	5
TAP	41	288	7
TAP	42	0	0
HLD	42	0	1	96
HLD	42	96	2	96
TAP	42	192	3
TAP	42	288	4
STR	42	288	5
SUR	42	288	5	96	192	2
XTP	43	0	3
XTP	43	192	0
TAP	44	0	3
TAP	44	0	4
XTP	44	96	2
XTP	44	144	1
XTP	44	144	3
XTP	44	240	5
XTP	44	288	4
XTP	44	288	6
TAP	45	0	1
TAP	45	48	1
TAP	45	96	0
STR	45	192	2
SI_	45	192	2	96	48	0
STR	45	192	7
SI_	45	192	7	96	48	3
XTP	46	0	1
XTP	46	0	5
TAP	46	96	5
TAP	46	192	4
TAP	46	192	6
TAP	46	288	1
TAP	46	288	3
TAP	47	0	6
TAP	47	48	6
TAP	47	96	7
STR	47	192	0
SI_	47	192	0	96	48	4
STR	47	192	5
SI_	47	192	5	96	48	7
XTP	48	0	2
XTP	48	0	6
TAP	48	96	2
TAP	48	192	1
TAP	48	192	3
TAP	48	288	0
TAP	48	288	7
HLD	49	0	6	96
HLD	49	96	5	96
TAP	49	192	4
TAP	49	288	3
TAP	49	288	6
HLD	50	0	2	96
HLD	50	96	1	96
TAP	50	192	0
TAP	50	288	2
TAP	50	288	7
XST	51	0	1
SI_	51	0	1	96	48	4
TAP	51	96	7
XST	51	144	7
SI_	51	144	7	96	48	3
TAP	51	240	1
XST	51	288	1
SI_	51	288	1	96	48	4
TAP	52	0	7
TAP	52	48	7
TAP	52	144	0
TAP	52	144	6
XST	52	192	0
SI_	52	192	0	96	48	4
XST	52	192	6
SI_	52	192	6	96	48	3
XTP	53	0	2
XTP	53	0	5
XHO	53	192	1	64
XHO	53	256	2	64
XHO	53	320	3	64
XTP	54	0	4
TAP	54	192	5
TAP	54	288	7
XTP	55	0	0
XTP	55	0	6
TAP	55	96	1
TAP	55	144	1
TAP	55	144	3
TAP	55	240	4
TAP	55	288	3
TAP	55	288	4
TAP	56	0	1
TAP	56	48	1
TAP	56	48	3
TAP	56	144	4
TAP	56	192	3
TAP	56	192	4
TAP	56	288	2
TAP	56	288	5
XTP	57	0	1
XTP	57	0	6
XHO	57	192	6	64
XHO	57	256	5	64
XHO	57	320	4	64
XTP	58	0	3
TAP	58	192	2
TAP	58	288	0
XTP	59	0	1
XTP	59	0	7
TAP	59	96	6
TAP	59	144	4
TAP	59	144	6
TAP	59	240	3
TAP	59	288	3
TAP	59	288	4
TAP	60	0	6
TAP	60	48	4
TAP	60	48	6
TAP	60	144	3
TAP	60	192	3
TAP	60	192	4
TAP	60	288	4
TAP	60	288	5
XTP	61	0	2
XTP	61	0	6
XHO	61	192	4	64
XHO	61	256	5	64
XHO	61	320	6	64
XTP	62	0	7
TAP	62	192	0
TAP	62	288	2
TAP	63	0	0
TAP	63	0	5
TAP	63	96	6
TAP	63	144	4
TAP	63	144	6
TAP	63	240	2
TAP	63	288	2
TAP	63	288	4
TAP	64	0	6
TAP	64	48	4
TAP	64	48	6
TAP	64	144	2
TAP	64	192	2
TAP	64	192	4
TAP	64	288	1
XTP	65	0	0
XTP	65	0	6
XHO	65	192	3	64
XHO	65	256	2	64
XHO	65	320	1	64
XTP	66	0	0
HLD	66	192	0	96
HLD	66	192	7	96
BRK	67	0	1
BRK	67	0	6
TAP	67	96	5
TAP	67	144	3
TAP	67	144	5
TAP	67	240	1
TAP	67	288	1
TAP	67	288	3
TAP	68	0	5
TAP	68	48	3
TAP	68	48	5
TAP	68	144	1
TAP	68	192	1
TAP	68	192	3
TAP	68	288	7
TAP	69	0	1
TAP	69	0	4
TAP	69	96	2
TAP	69	144	2
TAP	69	144	4
TAP	69	240	6
TAP	69	288	4
TAP	69	288	6
TAP	70	0	2
TAP	70	48	2
TAP	70	48	4
TAP	70	144	6
TAP	70	192	4
STR	70	192	6
SI_	70	192	6	96	48	2
XTP	71	0	0
TAP	71	96	1
TAP	71	144	1
TAP	71	144	3
TAP	71	240	6
TAP	71	288	6
TAP	71	288	7
TAP	72	0	1
TAP	72	48	1
TAP	72	48	3
TAP	72	144	6
TAP	72	192	6
TAP	72	192	7
TAP	72	288	0
TAP	72	288	5
TAP	73	0	3
TAP	73	0	4
TAP	73	96	1
TAP	73	144	0
TAP	73	144	1
TAP	73	240	6
TAP	73	288	4
TAP	73	288	6
TAP	74	0	1
TAP	74	48	0
TAP	74	48	1
TAP	74	144	3
TAP	74	144	4
TAP	74	192	3
TAP	74	192	4
STR	74	288	1
SCR	74	288	1	96	576	7
TAP	74	288	6
BRK	75	0	7
STR	77	0	0
SSL	77	0	0	96	480	4
HLD	79	0	5	384
TAP	79	288	4
HLD	80	0	4	384
TAP	80	288	3
STR	81	0	3
SCL	81	0	3	96	384	4
TAP	82	288	3
TAP	82	288	4
TAP	83	0	2
TAP	83	96	2
TAP	83	192	2
TAP	83	192	3
TAP	83	288	2
TAP	84	0	4
TAP	84	96	4
TAP	84	192	3
TAP	84	192	4
TAP	84	288	4
TAP	85	0	1
TAP	85	96	1
TAP	85	192	1
TAP	85	192	3
STR	85	288	1
SUR	85	288	1	96	288	4
TAP	86	288	7
TTP	87	0	7	E	0	M1
TTP	87	96	6	E	0	M1
TTP	87	192	5	E	0	M1
TTP	87	288	4	E	0	M1
TTP	88	0	3	E	0	M1
TTP	88	96	2	E	0	M1
TTP	88	192	1	E	0	M1
TTP	88	288	0	E	0	M1
THO	89	0	0	192	C	0	M1
STR	90	0	7
SI_	90	0	7	96	96	3
BRK	91	0	0
THO	97	0	0	384	C	0	M1
TAP	98	192	1
TAP	98	192	6
XTP	98	288	0
XTP	98	288	7
TAP	99	0	1
TAP	99	48	1
TAP	99	96	3
STR	99	192	2
SI_	99	192	2	96	48	7
STR	99	192	6
SI_	99	192	6	96	48	3
XTP	100	0	1
XTP	100	0	5
TAP	100	96	5
TAP	100	192	3
TAP	100	192	4
TAP	100	288	0
TAP	100	288	1
TAP	101	0	6
TAP	101	48	6
TAP	101	96	7
STR	101	192	1
SI_	101	192	1	96	48	4
STR	101	192	5
SI_	101	192	5	96	48	0
XTP	102	0	2
XTP	102	0	6
TAP	102	96	2
TAP	102	192	1
TAP	102	192	3
TAP	102	288	3
TAP	102	288	4
TAP	103	0	4
HLD	103	0	5	96
TAP	103	96	0
HLD	103	192	2	96
TAP	103	192	3
TAP	103	288	7
TAP	104	0	0
HLD	104	0	1	96
HLD	104	96	2	96
TAP	104	192	3
TAP	104	288	4
STR	104	288	5
SCR	104	288	5	96	192	3
XTP	105	0	3
XTP	105	192	0
TAP	106	0	0
TAP	106	0	7
XTP	106	96	2
XTP	106	96	3
XTP	106	144	2
XTP	106	144	3
XTP	106	240	4
XTP	106	240	6
XTP	106	288	4
XTP	106	288	6
TAP	107	0	1
TAP	107	48	1
TAP	107	96	0
STR	107	192	4
SI_	107	192	4	96	48	0
STR	107	192	6
SI_	107	192	6	96	48	3
XTP	108	0	1
XTP	108	0	5
TAP	108	96	1
TAP	108	192	2
TAP	108	192	3
TAP	108	288	0
TAP	108	288	7
TAP	109	0	6
TAP	109	48	6
TAP	109	96	4
HLD	109	192	2	96
STR	109	192	3
SI_	109	192	3	96	48	7
XTP	110	0	0
TAP	110	96	2
XTP	110	144	1
XTP	110	144	3
TAP	110	240	6
BRK	110	288	5
BRK	110	288	7
HLD	111	0	1	96
HLD	111	96	3	96
HLD	111	192	4	96
TAP	111	288	6
HLD	112	0	2	96
HLD	112	96	0	96
HLD	112	192	7	96
TAP	112	288	5
XST	113	0	2
SI_	113	0	2	96	48	6
TAP	113	96	7
XST	113	144	7
SI_	113	144	7	96	48	3
TAP	113	240	2
XST	113	288	2
SI_	113	288	2	96	48	6
TAP	114	0	7
XST	114	48	7
SI_	114	48	7	96	48	3
TAP	114	144	2
TAP	114	192	2
XTP	114	288	1
XTP	114	288	5
XST	115	0	0
SI_	115	0	0	96	48	4
TAP	115	96	5
XST	115	144	5
SI_	115	144	5	96	48	1
TAP	115	240	0
XST	115	288	0
SI_	115	288	0	96	48	4
TAP	116	0	5
XTP	116	48	5
TAP	116	144	3
TAP	116	144	6
XTP	116	192	3
XST	116	192	6
SI_	116	192	6	96	48	3
XST	116	288	2
SCL	116	288	2	96	288	5
BRK	117	0	4
TAP	118	0	3
TAP	118	96	4
HLD	118	192	5	96
STR	118	288	0
SCR	118	288	0	96	288	5
XTP	119	0	7
TAP	120	0	6
TAP	120	96	4
HLD	120	192	3	96
BRK	120	288	7
TAP	121	0	2
TAP	121	48	3
TAP	121	96	1
TAP	121	144	5
TAP	121	192	4
TAP	121	240	6
TAP	121	288	2
TAP	121	336	3
TAP	122	0	1
TAP	122	48	5
TAP	122	96	4
TAP	122	144	6
STR	122	192	3
SI_	122	192	3	96	48	0
TAP	123	0	6
TAP	123	48	7
TAP	123	96	5
TAP	123	144	1
TAP	123	192	0
TAP	123	240	2
BRK	123	288	7
XHO	124	0	6	64
XHO	124	64	5	64
XHO	124	128	4	64
XHO	124	192	2	64
XHO	124	256	3	64
TTP	124	320	0	C	1	M1

T_REC_TAP	373
T_REC_BRK	13
T_REC_XTP	91
T_REC_HLD	32
T_REC_XHO	20
T_REC_STR	26
T_REC_BST	0
T_REC_XST	14
T_REC_TTP	15
T_REC_THO	4
T_REC_SLD	40
T_REC_ALL	628
T_NUM_TAP	519
T_NUM_BRK	13
T_NUM_HLD	56
T_NUM_SLD	40
T_NUM_ALL	628
T_JUDGE_TAP	532
T_JUDGE_HLD	168
T_JUDGE_SLD	40
T_JUDGE_ALL	740
TTM_EACHPAIRS	154
TTM_SCR_TAP	259500
TTM_SCR_BRK	33800
TTM_SCR_HLD	56000
TTM_SCR_SLD	60000
TTM_SCR_ALL	409300
TTM_SCR_S	395800
TTM_SCR_SS	408000
TTM_RAT_ACV	10031

