VERSION	0.00.00	1.03.00
FES_MODE	0
BPM_DEF	210.000	210.000	210.000	210.000
MET_DEF	4	4
RESOLUTION	384
CLK_DEF	384
COMPATIBLE_CODE	MA2

BPM	0	0	210.000
MET	0	0	4	4

HLD	5	0	5	192
TAP	5	192	4
TAP	6	0	4
TAP	6	0	5
TAP	6	192	3
TAP	6	192	4
HLD	7	0	2	192
TAP	7	192	3
TAP	8	0	4
TAP	8	96	4
TAP	8	192	4
HLD	9	0	6	192
TAP	9	192	7
TAP	10	0	6
TAP	10	0	7
TAP	10	192	0
TAP	10	192	7
HLD	11	0	1	192
HLD	11	0	6	192
BRK	12	0	2
BRK	12	0	5
XST	13	96	1
SI_	13	96	1	96	288	4
TAP	14	192	5
STR	15	0	5
SI_	15	0	5	96	288	2
TAP	16	192	1
STR	17	0	1
SI_	17	0	1	96	288	4
TAP	18	192	5
HLD	19	0	3	192
HLD	19	0	4	192
TAP	20	0	3
TAP	20	0	4
TAP	20	96	3
TAP	20	96	4
XTP	20	192	3
XTP	20	192	4
HLD	21	0	2	96
HLD	21	0	3	96
TAP	21	192	2
TAP	21	192	3
TAP	22	0	5
TAP	22	96	5
TAP	22	192	4
TAP	22	192	5
TAP	23	0	2
TAP	23	96	2
TAP	23	192	2
TAP	23	192	3
TAP	24	0	3
TAP	24	0	4
TAP	24	192	2
TAP	24	192	5
TAP	25	0	6
TAP	25	96	6
TAP	25	192	6
TAP	25	192	7
TAP	26	0	1
TAP	26	96	1
TAP	26	192	0
TAP	26	192	1
TAP	27	0	7
TAP	27	96	7
TAP	27	192	0
TAP	27	288	0
TAP	28	0	0
TAP	28	0	7
XTP	28	192	1
XTP	28	192	6
TTP	29	0	2	E	0	L1
TTP	29	192	2	B	0	L1
TTP	30	0	4	B	0	L1
TTP	30	0	4	E	0	L1
TTP	31	0	6	E	0	L1
TTP	31	192	5	B	0	L1
TTP	32	0	3	B	0	L1
TTP	32	0	4	E	0	L1
TTP	33	0	1	E	0	L1
TTP	33	192	0	C	0	L1
TTP	34	0	5	E	0	L1
TTP	34	192	2	E	0	L1
TTP	34	192	6	E	0	L1
THO	35	0	0	384	C	0	L1
BRK	37	0	2
TAP	37	96	2
TAP	37	192	3
TAP	37	288	3
XTP	38	0	3
XTP	38	0	5
TAP	38	192	6
TAP	38	192	7
TAP	39	0	6
TAP	39	96	6
TAP	39	192	5
TAP	39	288	5
XTP	40	0	3
XTP	40	0	5
TAP	40	192	1
TAP	40	192	6
TAP	41	0	2
TAP	41	96	2
TAP	41	192	1
TAP	41	192	3
TAP	42	0	5
TAP	42	96	5
TAP	42	192	4
TAP	42	192	6
TAP	43	0	0
TAP	43	96	0
TAP	43	192	7
TAP	43	288	7
HLD	44	0	0	96
HLD	44	0	7	96
XTP	44	192	1
XTP	44	192	6
TAP	45	0	2
TAP	45	96	2
TAP	45	192	2
TAP	45	192	3
TAP	45	288	2
TAP	45	288	3
XTP	46	0	1
XTP	46	0	4
TAP	46	192	2
TAP	46	192	3
TAP	47	0	5
TAP	47	96	5
TAP	47	192	4
TAP	47	192	5
TAP	47	288	4
TAP	47	288	5
XTP	48	0	3
XTP	48	0	6
TAP	48	192	0
TAP	48	192	7
TAP	49	0	1
TAP	49	96	1
TAP	49	192	0
TAP	49	192	2
TAP	50	0	6
TAP	50	96	6
TAP	50	192	5
TAP	50	192	7
STR	51	0	0
SI_	51	0	0	96	288	4
STR	51	0	7
SI_	51	0	7	96	288	3
XTP	52	192	2
XTP	52	192	5
HLD	53	0	2	192
HLD	53	192	3	192
HLD	54	0	4	192
TAP	54	192	5
TAP	55	0	6
TAP	55	96	6
TAP	55	192	5
TAP	55	288	5
TAP	56	0	4
TAP	56	96	4
XTP	56	192	2
XTP	56	192	4
HLD	57	0	5	192
HLD	57	192	4	192
HLD	58	0	3	192
TAP	58	192	2
TAP	59	0	1
TAP	59	96	1
TAP	59	192	2
TAP	59	288	2
TAP	60	0	3
TAP	60	96	3
XTP	60	192	3
XTP	60	192	5
HLD	61	0	6	192
HLD	61	192	7	192
HLD	62	0	0	192
TAP	62	192	1
TAP	63	0	2
TAP	63	96	2
TAP	63	192	1
TAP	63	288	1
TAP	64	0	0
TAP	64	96	0
XTP	64	192	0
XTP	64	192	6
HLD	65	0	5	192
HLD	65	192	4	192
XTP	66	0	3
XTP	66	192	2
XTP	66	192	5
TAP	67	0	1
TAP	67	96	1
TAP	67	192	2
TAP	67	288	2
TAP	68	0	3
TAP	68	96	4
TAP	68	192	3
TAP	68	192	5
TAP	69	0	6
TAP	69	96	6
TAP	69	192	5
TAP	69	288	5
TAP	70	0	4
TAP	70	96	3
TAP	70	192	2
TAP	70	192	4
TAP	71	0	5
TAP	71	96	5
TAP	71	192	6
TAP	71	288	6
TAP	72	0	7
TAP	72	96	7
TAP	72	192	0
TAP	72	192	6
TAP	73	0	2
TAP	73	96	2
TAP	73	192	1
TAP	73	288	1
HLD	74	0	0	96
HLD	74	0	7	96
BRK	74	192	1
BRK	74	192	6
STR	75	0	2
SCL	75	0	2	96	480	5
STR	77	0	4
SUL	77	0	4	96	480	3
XST	79	0	2
SI_	79	0	2	96	288	7
TAP	80	192	6
STR	81	0	6
SI_	81	0	6	96	288	3
TAP	82	192	2
STR	83	0	0
SI_	83	0	0	96	288	5
STR	83	0	1
SI_	83	0	1	96	288	4
TAP	84	192	6
STR	85	0	6
SI_	85	0	6	96	288	3
STR	85	0	7
SI_	85	0	7	96	288	2
TAP	86	192	1
XST	87	0	0
SI_	87	0	0	96	288	3
XST	87	0	7
SI_	87	0	7	96	288	4
TAP	88	192	2
TAP	88	192	5
THO	89	0	0	768	C	0	L1
HLD	97	0	3	192
HLD	97	0	4	192
TAP	98	0	2
TAP	98	0	5
BRK	99	0	1
TAP	99	96	1
TAP	99	192	0
TAP	99	192	1
TAP	99	288	0
TAP	99	288	1
TAP	100	0	2
TAP	100	0	7
TAP	100	192	3
TAP	100	192	4
TAP	101	0	6
TAP	101	96	6
TAP	101	192	6
TAP	101	192	7
TAP	101	288	6
TAP	101	288	7
TAP	102	0	0
TAP	102	0	5
TAP	102	192	1
TAP	102	192	6
TAP	103	0	2
TAP	103	96	3
TAP	103	192	2
TAP	103	192	4
TAP	104	0	5
TAP	104	96	4
TAP	104	192	3
TAP	104	192	5
TAP	105	0	6
TAP	105	96	6
TAP	105	192	7
TAP	105	288	7
TAP	106	0	0
TAP	106	0	7
TAP	106	96	1
TAP	106	96	6
XTP	106	192	2
XTP	106	192	5
TAP	107	0	5
TAP	107	96	4
TAP	107	96	5
TAP	107	192	2
TAP	107	288	2
TAP	107	288	3
XTP	108	0	1
XTP	108	0	4
TAP	108	192	0
TAP	108	288	0
TAP	109	0	6
TAP	109	96	6
TAP	109	96	7
TAP	109	192	1
TAP	109	288	0
TAP	109	288	1
XTP	110	0	2
XTP	110	0	7
TAP	110	192	3
TAP	110	288	3
TAP	111	0	4
TAP	111	96	5
XTP	111	192	3
XTP	111	192	6
TAP	112	0	3
TAP	112	96	2
XTP	112	192	1
XTP	112	192	4
STR	113	0	0
SI_	113	0	0	96	288	4
STR	113	0	1
SI_	113	0	1	96	288	5
XTP	114	192	3
XTP	114	192	6
STR	115	0	6
SI_	115	0	6	96	288	2
STR	115	0	7
SI_	115	0	7	96	288	3
XTP	116	192	1
XTP	116	192	4
TAP	117	0	2
TAP	117	96	2
TAP	117	192	3
TAP	117	288	4
TAP	118	0	5
TAP	118	96	6
TAP	118	96	7
TAP	118	192	6
TAP	118	192	7
TAP	119	0	5
TAP	119	96	5
TAP	119	192	4
TAP	119	288	3
TAP	120	0	2
TAP	120	96	0
TAP	120	96	1
TAP	120	192	0
TAP	120	192	1
TAP	121	0	1
TAP	121	96	1
TAP	121	192	2
TAP	121	288	3
TAP	122	0	4
TAP	122	0	5
TAP	122	96	3
TAP	122	96	6
TAP	122	192	2
TAP	122	192	7
TAP	123	0	0
TAP	123	96	0
TAP	123	192	7
TAP	123	288	7
THO	124	0	0	336	C	0	L1

T_REC_TAP	240
T_REC_BRK	6
T_REC_XTP	39
T_REC_HLD	26
T_REC_XHO	0
T_REC_STR	15
T_REC_BST	0
T_REC_XST	4
T_REC_TTP	13
T_REC_THO	3
T_REC_SLD	19
T_REC_ALL	365
T_NUM_TAP	311
T_NUM_BRK	6
T_NUM_HLD	29
T_NUM_SLD	19
T_NUM_ALL	365
T_JUDGE_TAP	317
T_JUDGE_HLD	123
T_JUDGE_SLD	19
T_JUDGE_ALL	459
TTM_EACHPAIRS	87
TTM_SCR_TAP	155500
TTM_SCR_BRK	15600
TTM_SCR_HLD	29000
TTM_SCR_SLD	28500
TTM_SCR_ALL	228600
TTM_SCR_S	221200
TTM_SCR_SS	228000
TTM_RAT_ACV	10026

