VERSION	0.00.00	1.03.00
FES_MODE	0
BPM_DEF	210.000	210.000	210.000	210.000
MET_DEF	4	4
RESOLUTION	384
CLK_DEF	384
COMPATIBLE_CODE	MA2

BPM	0	0	210.000
MET	0	0	4	4

XTP	5	0	3
XTP	6	0	3
XTP	6	0	4
XTP	7	0	4
XTP	8	0	3
XTP	8	0	4
TAP	9	0	3
TAP	10	0	3
TAP	10	0	4
TAP	11	0	4
BRK	12	0	3
BRK	12	0	4
HLD	13	0	3	384
TAP	15	0	3
TAP	15	192	3
TAP	16	0	3
HLD	17	0	2	384
TAP	19	0	2
TAP	19	192	2
XTP	20	0	2
XTP	20	0	3
TAP	21	0	1
TAP	21	192	1
TAP	22	0	1
TAP	23	0	0
TAP	23	192	0
TAP	24	0	0
TAP	25	0	7
TAP	25	192	7
TAP	26	0	7
TAP	27	0	0
TAP	27	192	0
BRK	28	0	0
BRK	28	0	7
TTP	29	0	1	B	0	L1
TTP	30	0	2	B	0	L1
TTP	31	0	3	B	0	L1
TTP	32	0	4	B	0	L1
TTP	33	0	5	B	0	L1
TTP	34	0	6	B	0	L1
THO	35	0	0	384	C	1	L1
TAP	37	0	7
TAP	37	96	7
TAP	37	192	7
TAP	38	0	7
TAP	39	0	6
TAP	39	96	6
TAP	39	192	6
TAP	40	0	6
TAP	41	0	5
TAP	41	96	5
TAP	41	192	5
TAP	42	0	4
TAP	42	96	4
TAP	42	192	4
TAP	43	0	3
TAP	43	192	3
TAP	44	0	3
TAP	44	0	4
TAP	45	0	3
TAP	45	96	3
TAP	45	192	3
TAP	46	0	3
TAP	47	0	2
TAP	47	96	2
TAP	47	192	2
TAP	48	0	2
TAP	49	0	1
TAP	49	96	1
TAP	49	192	1
TAP	50	0	0
TAP	50	96	0
TAP	50	192	0
STR	51	0	7
SI_	51	0	7	96	288	3
TAP	53	0	2
TAP	53	0	3
TAP	54	0	3
TAP	54	0	4
HLD	55	0	4	384
HLD	55	0	5	384
TAP	57	0	4
TAP	57	0	5
TAP	58	0	3
TAP	58	0	4
HLD	59	0	2	384
HLD	59	0	3	384
TAP	61	0	0
TAP	61	0	1
TAP	62	0	0
TAP	62	0	7
HLD	63	0	6	384
HLD	63	0	7	384
TAP	65	0	6
TAP	65	0	7
TAP	66	0	0
TAP	66	0	7
TAP	67	0	0
TAP	67	0	1
TAP	67	192	0
TAP	67	192	1
TAP	68	0	0
TAP	68	0	1
TAP	69	0	0
TAP	69	0	7
TAP	69	192	0
TAP	69	192	7
TAP	70	0	0
TAP	70	0	7
TAP	71	0	6
TAP	71	0	7
TAP	71	192	6
TAP	71	192	7
TAP	72	0	6
TAP	72	0	7
HLD	73	0	0	384
HLD	73	0	7	384
TAP	75	0	1
TAP	76	0	1
TAP	77	0	2
TAP	78	0	2
TAP	79	0	3
TAP	80	0	3
HLD	81	0	4	384
TAP	83	0	5
TAP	84	0	5
TAP	85	0	6
TAP	86	0	6
TAP	87	0	7
TAP	88	0	7
BRK	89	0	0
BRK	89	0	7
TTP	91	0	1	E	0	L1
TTP	91	0	7	E	0	L1
TTP	93	0	1	B	0	L1
TTP	93	0	6	B	0	L1
TTP	95	0	2	B	0	L1
TTP	95	0	5	B	0	L1
THO	97	0	0	384	C	1	L1
TAP	99	0	7
TAP	99	96	7
TAP	99	192	7
TAP	100	0	0
TAP	100	0	7
TAP	101	0	6
TAP	101	96	6
TAP	101	192	6
TAP	102	0	6
TAP	102	0	7
TAP	103	0	5
TAP	103	96	5
TAP	103	192	5
TAP	104	0	4
TAP	104	96	4
TAP	104	192	4
TAP	105	0	3
TAP	105	0	4
TAP	105	192	3
TAP	105	192	4
XTP	106	0	2
XTP	106	0	5
TAP	107	0	3
TAP	107	96	3
TAP	107	192	3
TAP	108	0	3
TAP	108	0	4
TAP	109	0	2
TAP	109	96	2
TAP	109	192	2
TAP	110	0	2
TAP	110	0	3
TAP	111	0	1
TAP	111	96	1
TAP	111	192	1
TAP	112	0	0
TAP	112	96	0
TAP	112	192	0
STR	113	0	7
SI_	113	0	7	96	288	3
STR	115	0	0
SI_	115	0	0	96	288	4
BRK	117	0	7
TAP	117	192	7
TAP	118	0	0
TAP	118	192	0
TAP	119	0	1
TAP	119	192	1
TAP	120	0	2
TAP	120	192	2
TAP	121	0	3
TAP	121	192	3
TAP	122	0	4
TAP	122	192	4
TAP	123	0	5
TAP	123	192	5
HLD	124	0	6	336

T_REC_TAP	147
T_REC_BRK	7
T_REC_XTP	10
T_REC_HLD	12
T_REC_XHO	0
T_REC_STR	3
T_REC_BST	0
T_REC_XST	0
T_REC_TTP	12
T_REC_THO	2
T_REC_SLD	3
T_REC_ALL	196
T_NUM_TAP	172
T_NUM_BRK	7
T_NUM_HLD	14
T_NUM_SLD	3
T_NUM_ALL	196
T_JUDGE_TAP	179
T_JUDGE_HLD	111
T_JUDGE_SLD	3
T_JUDGE_ALL	293
TTM_EACHPAIRS	36
TTM_SCR_TAP	86000
TTM_SCR_BRK	18200
TTM_SCR_HLD	14000
TTM_SCR_SLD	4500
TTM_SCR_ALL	122700
TTM_SCR_S	118350
TTM_SCR_SS	122000
TTM_RAT_ACV	10057

