VERSION	0.00.00	1.03.00
FES_MODE	0
BPM_DEF	188.000	188.000	188.000	188.000
MET_DEF	4	4
RESOLUTION	384
CLK_DEF	384
COMPATIBLE_CODE	MA2

BPM	0	0	188.000
MET	0	0	4	4

XHO	1	0	0	96
XHO	1	0	5	672
HLD	1	144	1	96
STR	1	288	2
SCL	1	288	2	96	288	6
HLD	3	0	1	96
HLD	3	0	4	528
HLD	3	144	2	96
STR	3	288	3
SSR	3	288	3	96	144	7
TAP	4	240	5
TAP	4	264	4
TAP	4	288	5
XTP	5	0	2
XTP	5	0	5
TAP	5	48	2
TAP	5	48	5
STR	5	144	0
SI_	5	144	0	96	48	4
TAP	5	144	1
TAP	5	240	3
TAP	5	336	6
STR	5	336	7
SI_	5	336	7	96	48	3
TAP	6	48	4
STR	6	144	0
SI_	6	144	0	96	48	4
TAP	6	144	1
TAP	6	240	3
TAP	6	288	2
TAP	6	336	1
TAP	7	0	0
TAP	7	0	4
TAP	7	48	0
TAP	7	48	4
TAP	7	144	6
STR	7	144	7
SI_	7	144	7	96	48	3
TAP	7	240	4
STR	7	336	0
SI_	7	336	0	96	48	4
TAP	7	336	1
TAP	8	48	3
TAP	8	144	6
STR	8	144	7
SI_	8	144	7	96	48	3
TAP	8	240	4
TAP	8	288	5
TAP	8	336	6
TAP	9	0	3
TAP	9	0	7
TAP	9	48	3
TAP	9	48	7
STR	9	144	0
SI_	9	144	0	96	48	4
TAP	9	144	1
TAP	9	240	3
TAP	9	336	6
STR	9	336	7
SI_	9	336	7	96	48	3
TAP	10	48	4
STR	10	144	0
SI_	10	144	0	96	48	4
TAP	10	144	1
TAP	10	240	3
TAP	10	288	2
TAP	10	336	1
TAP	11	0	0
TAP	11	0	4
TAP	11	48	0
TAP	11	48	4
TAP	11	144	3
STR	11	144	6
SCL	11	144	6	96	48	3
STR	11	240	0
SCR	11	240	0	96	48	3
XTP	11	336	0
XTP	11	336	7
TAP	12	48	3
TAP	12	48	4
XTP	12	96	2
XTP	12	96	5
TAP	12	192	3
TAP	12	240	4
TAP	12	288	5
TAP	12	336	6
XTP	13	0	3
XTP	13	0	7
TAP	13	48	3
TAP	13	48	7
STR	13	144	0
SCL	13	144	0	96	48	5
TAP	13	144	1
TAP	13	240	3
TAP	13	336	6
STR	13	336	7
SCR	13	336	7	96	48	2
TAP	14	48	4
STR	14	144	0
SCL	14	144	0	96	48	5
TAP	14	144	1
TAP	14	240	3
TAP	14	288	2
TAP	14	336	1
XTP	15	0	0
XTP	15	0	4
TAP	15	48	0
TAP	15	48	4
TAP	15	144	6
STR	15	144	7
SCR	15	144	7	96	48	2
TAP	15	240	4
STR	15	336	0
SCL	15	336	0	96	48	5
TAP	15	336	1
TAP	16	48	3
TAP	16	144	6
STR	16	144	7
SCR	16	144	7	96	48	2
TAP	16	240	4
TAP	16	288	5
TAP	16	336	6
XTP	17	0	3
XTP	17	0	7
TAP	17	48	3
TAP	17	48	7
STR	17	144	0
SCL	17	144	0	96	48	5
TAP	17	144	1
TAP	17	240	3
TAP	17	336	6
STR	17	336	7
SCR	17	336	7	96	48	2
TAP	18	48	4
STR	18	144	0
SCL	18	144	0	96	48	5
TAP	18	144	1
TAP	18	240	3
TAP	18	288	2
TAP	18	336	1
XTP	19	0	0
XTP	19	0	4
TAP	19	48	0
TAP	19	48	4
TAP	19	144	6
STR	19	144	7
SCR	19	144	7	96	48	2
TAP	19	240	4
XTP	19	336	1
XTP	19	336	7
TAP	20	48	0
TAP	20	48	6
TAP	20	96	0
TAP	20	96	6
TAP	20	192	3
TAP	20	192	4
TAP	20	288	2
TAP	20	288	5
HLD	20	336	2	336
TAP	20	336	5
TTP	21	48	0	C	0	M1
HLD	22	0	5	144
TAP	22	96	3
STR	22	144	3
SI_	22	144	3	96	48	1
TAP	22	240	4
TAP	22	288	4
HLD	23	0	2	144
TAP	23	96	4
STR	23	144	4
SI_	23	144	4	96	48	6
TAP	23	240	3
TAP	23	288	3
TAP	24	0	0
TAP	24	48	0
TAP	24	96	0
TAP	24	96	3
TAP	24	192	7
TAP	24	240	7
TAP	24	288	4
TAP	24	288	7
TAP	25	0	0
STR	25	96	0
SCR	25	96	0	96	96	4
TAP	25	96	6
TAP	25	192	7
TAP	25	288	7
HLD	26	0	5	96
TAP	26	96	3
TAP	26	144	4
HLD	26	192	2	96
TAP	26	288	4
TAP	26	336	3
HLD	27	0	6	96
TAP	27	96	3
TAP	27	144	4
HLD	27	192	1	96
TAP	27	288	4
TAP	27	336	3
STR	28	0	7
SCL	28	0	7	96	48	4
STR	28	96	7
SCR	28	96	7	96	48	2
TAP	28	192	7
TAP	28	288	4
HLD	28	336	4	240
TAP	29	48	2
TAP	29	96	2
TAP	29	144	2
STR	29	192	2
SI_	29	192	2	96	48	5
XTP	29	288	2
XTP	29	288	5
STR	30	0	6
SUL	30	0	6	96	48	2
TAP	30	48	6
TAP	30	96	0
STR	30	192	1
SUR	30	192	1	96	48	5
TAP	30	240	1
TAP	30	288	7
STR	31	0	6
SCL	31	0	6	96	48	3
TAP	31	48	6
TAP	31	96	0
STR	31	192	1
SCR	31	192	1	96	48	4
TAP	31	240	1
TAP	31	288	7
TAP	32	0	6
TAP	32	48	6
STR	32	96	6
SI_	32	96	6	96	48	1
STR	32	96	7
SI_	32	96	7	96	48	4
TAP	32	288	2
TAP	32	288	3
TAP	33	0	1
TAP	33	48	1
STR	33	96	0
SI_	33	96	0	96	48	3
STR	33	96	1
SI_	33	96	1	96	48	6
TAP	33	288	4
TAP	33	288	5
STR	34	0	6
SLL	34	0	6	96	96	2
TAP	34	48	6
TAP	34	96	0
STR	34	192	1
SLR	34	192	1	96	96	5
TAP	34	240	1
TAP	34	288	7
STR	35	0	6
SLL	35	0	6	96	96	0
TAP	35	48	6
TAP	35	96	0
STR	35	192	1
SLR	35	192	1	96	96	7
TAP	35	240	1
TAP	35	288	7
STR	36	0	6
SI_	36	0	6	96	48	2
STR	36	96	0
SI_	36	96	0	96	48	4
TAP	36	192	7
TAP	36	288	3
TAP	36	288	4
TAP	36	336	1
TAP	36	336	6
TAP	37	96	4
TAP	37	96	5
TAP	37	192	2
TAP	37	192	3
TAP	37	288	0
TAP	37	288	7
XTP	38	0	0
XHO	38	0	5	96
XTP	38	16	1
XTP	38	32	2
XTP	38	48	3
XTP	38	144	0
XHO	38	144	4	96
XTP	38	160	1
XTP	38	176	2
XST	38	192	3
SF_	38	192	3	96	48	7
XTP	38	288	3
TTP	38	306	0	C	1	M1
TAP	39	192	0
TAP	39	192	7
TAP	39	240	1
HLD	39	240	6	432
TTP	40	0	5	B	0	M1
TTP	40	0	6	E	0	M1
TTP	40	0	6	B	0	M1
TTP	40	144	1	B	0	M1
TTP	40	144	2	B	0	M1
TTP	40	144	2	E	0	M1
TTP	40	288	0	E	0	M1
TTP	40	288	0	B	0	M1
TTP	40	288	7	B	0	M1
TAP	41	48	3
TAP	41	96	4
TAP	41	192	2
TAP	41	192	5
TAP	41	288	1
TAP	41	288	6
TAP	42	0	6
TAP	42	48	5
TAP	42	96	1
TAP	42	144	2
TAP	42	192	5
TAP	42	240	4
TAP	42	288	2
TAP	42	336	3
TAP	42	336	4
TAP	43	48	3
TAP	43	48	6
STR	43	144	1
SLR	43	144	1	96	72	0
STR	43	144	5
SLR	43	144	5	96	72	4
TAP	44	0	0
TAP	44	48	3
TAP	44	96	1
TAP	44	144	4
TAP	44	192	2
TAP	44	240	5
TAP	44	288	3
TAP	44	336	6
TAP	45	0	4
TAP	45	0	7
STR	45	48	4
SSR	45	48	4	96	96	0
STR	45	48	7
SSL	45	48	7	96	96	3
BST	46	0	1
SCR	46	0	1	96	48	4
TAP	46	48	1
STR	46	96	0
SI_	46	96	0	96	48	5
TAP	46	144	0
STR	46	192	1
SCR	46	192	1	96	48	4
TAP	46	240	1
TAP	46	288	0
TAP	46	336	0
STR	47	0	3
SV_	47	0	3	96	48	4
STR	47	0	7
SV_	47	0	7	96	48	0
TAP	47	240	2
TAP	47	240	5
XTP	47	336	0
XTP	47	336	6
HLD	48	48	2	96
TAP	48	96	3
HLD	48	144	5	96
TAP	48	192	4
HLD	48	240	2	96
TAP	48	288	3
HLD	48	336	5	96
TAP	49	0	4
HLD	49	48	2	96
TAP	49	96	3
TAP	49	144	5
STR	49	192	7
SI_	49	192	7	96	48	4
SCR	49	192	7	96	48	4
TAP	50	0	6
TAP	50	48	5
TAP	50	96	1
TAP	50	144	2
TAP	50	192	5
TAP	50	240	4
TAP	50	288	2
TAP	50	336	3
TAP	51	0	4
TAP	51	48	4
STR	51	96	3
SSR	51	96	3	96	96	7
STR	51	96	5
SSL	51	96	5	96	96	1
XTP	51	336	0
XTP	51	336	5
TAP	52	48	6
TAP	52	96	7
TAP	52	144	0
TAP	52	192	1
TAP	52	240	2
TAP	52	288	3
TAP	52	336	4
XTP	53	0	3
TAP	53	0	5
XTP	53	12	2
XTP	53	24	1
XTP	53	36	0
XTP	53	48	7
XTP	53	60	6
XTP	53	72	5
XTP	53	84	4
XST	53	96	3
SF_	53	96	3	96	48	7
BRK	53	192	3
TTP	53	210	0	C	1	M1
XTP	53	336	0
XTP	53	336	4
TAP	54	48	6
STR	54	96	5
SI_	54	96	5	96	48	0
TAP	54	144	4
TAP	54	192	3
TAP	54	240	2
STR	54	288	1
SCR	54	288	1	96	48	4
TAP	54	336	0
TAP	55	0	7
TAP	55	48	6
TAP	55	96	5
STR	55	144	3
SI_	55	144	3	96	48	0
STR	55	144	4
SI_	55	144	4	96	48	7
TAP	55	336	1
HLD	55	336	5	96
HLD	56	48	3	48
HLD	56	96	7	48
HLD	56	144	2	48
HLD	56	192	6	48
HLD	56	240	1	48
HLD	56	288	5	48
HLD	56	336	0	48
TAP	57	0	4
TAP	57	48	4
TAP	57	96	3
STR	57	96	4
SCR	57	96	4	96	96	3
TTP	57	288	0	E	0	M1
TTP	57	300	0	C	0	M1
TTP	57	312	4	B	0	M1
TTP	57	324	3	B	0	M1
HLD	58	0	5	1104
TTP	58	96	6	E	0	M1
TTP	58	108	0	C	0	M1
TTP	58	120	1	B	0	M1
TTP	58	120	2	E	0	M1
TTP	58	120	2	B	0	M1
TTP	58	240	0	E	0	M1
TTP	58	252	0	C	0	M1
TTP	58	264	3	B	0	M1
TTP	58	264	4	E	0	M1
TTP	58	264	4	B	0	M1
TTP	59	0	6	E	0	M1
TTP	59	12	0	C	0	M1
TTP	59	24	1	B	0	M1
TTP	59	24	2	E	0	M1
TTP	59	24	2	B	0	M1
TTP	59	144	0	E	0	M1
TTP	59	156	0	C	0	M1
TTP	59	168	3	B	0	M1
TTP	59	168	4	B	0	M1
TTP	59	168	4	E	0	M1
TTP	59	288	6	E	0	M1
TTP	59	300	0	C	0	M1
TTP	59	312	1	B	0	M1
TTP	59	312	2	B	0	M1
TTP	59	312	2	E	0	M1
TTP	60	0	0	E	0	M1
TTP	60	12	0	C	0	M1
TTP	60	24	3	B	0	M1
TTP	60	24	4	E	0	M1
TTP	60	24	4	B	0	M1
TTP	60	96	6	E	0	M1
TTP	60	108	0	C	0	M1
TTP	60	120	1	B	0	M1
TTP	60	120	2	E	0	M1
TTP	60	120	2	B	0	M1
TTP	60	192	0	E	0	M1
TTP	60	204	0	C	0	M1
TTP	60	216	3	B	0	M1
TTP	60	216	4	E	0	M1
TTP	60	216	4	B	0	M1
TTP	60	288	6	E	0	M1
TTP	60	300	0	C	0	M1
TTP	60	312	1	B	0	M1
TTP	60	312	2	E	0	M1
TTP	60	312	2	B	0	M1
TAP	61	48	5
TAP	61	96	4
TAP	61	96	5
TAP	61	144	5
TAP	61	192	2
TAP	61	192	5
TAP	61	240	5
TAP	61	288	3
TAP	61	288	5
TAP	61	336	5
TAP	62	0	1
TAP	62	0	5
TAP	62	48	5
TAP	62	96	2
TAP	62	96	5
TAP	62	144	5
TAP	62	192	3
TAP	62	192	4
TTP	62	240	4	E	0	M1
TTP	62	252	3	B	0	M1
TTP	62	252	4	B	0	M1
TTP	62	264	0	C	0	M1
TTP	62	276	0	E	0	M1
XTP	63	0	1
XTP	63	0	6
TAP	63	48	2
TAP	63	48	5
STR	63	144	0
SCL	63	144	0	96	48	5
TAP	63	144	1
TAP	63	240	3
TAP	63	336	6
STR	63	336	7
SCR	63	336	7	96	48	2
TAP	64	48	4
STR	64	144	0
SI_	64	144	0	96	48	4
TAP	64	144	1
TAP	64	240	3
TAP	64	288	2
TAP	64	336	1
TAP	65	0	0
TAP	65	0	4
TAP	65	48	0
TAP	65	48	4
TAP	65	144	6
STR	65	144	7
SCR	65	144	7	96	48	2
TAP	65	240	4
STR	65	336	0
SCL	65	336	0	96	48	5
TAP	65	336	1
TAP	66	48	3
TAP	66	144	6
STR	66	144	7
SI_	66	144	7	96	48	3
TAP	66	240	4
TAP	66	288	5
TAP	66	336	6
TAP	67	0	3
TAP	67	0	7
TAP	67	48	3
TAP	67	48	7
STR	67	144	0
SCL	67	144	0	96	48	5
TAP	67	144	1
TAP	67	240	3
TAP	67	336	6
STR	67	336	7
SCR	67	336	7	96	48	2
TAP	68	48	4
STR	68	144	0
SI_	68	144	0	96	48	4
TAP	68	144	1
TAP	68	240	3
TAP	68	288	2
TAP	68	336	1
TAP	69	0	0
TAP	69	0	4
TAP	69	48	0
TAP	69	48	4
TAP	69	144	3
STR	69	144	6
SCL	69	144	6	96	48	3
STR	69	240	0
SI_	69	240	0	96	48	4
XTP	69	336	0
XTP	69	336	7
TAP	70	48	2
TAP	70	48	5
TAP	70	96	2
TAP	70	96	5
TAP	70	144	4
TAP	70	168	3
TAP	70	192	4
TAP	70	240	1
TAP	70	240	6
TAP	71	0	2
HLD	71	0	4	96
TAP	71	96	2
HLD	71	144	6	96
TAP	71	192	2
TAP	71	288	2
HLD	71	288	5	96
TAP	72	0	2
TAP	72	48	7
TAP	72	96	2
TAP	72	96	7
TAP	72	144	7
TAP	72	192	2
STR	72	192	7
SI_	72	192	7	96	48	3
TAP	72	288	2
TAP	73	0	2
HLD	73	0	6	96
TAP	73	96	2
HLD	73	144	4	96
TAP	73	192	2
TAP	73	288	2
HLD	73	288	5	96
TAP	74	0	2
TAP	74	48	7
TAP	74	96	2
TAP	74	96	7
TAP	74	144	7
TAP	74	192	2
STR	74	192	7
SI_	74	192	7	96	48	4
TAP	74	288	2
HLD	75	0	3	96
TAP	75	0	5
TAP	75	96	5
HLD	75	144	1	96
TAP	75	192	5
HLD	75	288	2	96
TAP	75	288	5
TAP	76	0	5
TAP	76	48	0
TAP	76	96	0
TAP	76	96	5
TAP	76	144	0
STR	76	192	0
SI_	76	192	0	96	48	4
TAP	76	192	5
TAP	76	288	5
HLD	77	0	1	96
TAP	77	0	5
TAP	77	96	5
HLD	77	144	3	96
TAP	77	192	5
TAP	77	288	2
TAP	77	288	5
BRK	78	0	0
BRK	78	0	4
TAP	78	64	2
TAP	78	64	6
TAP	78	128	2
TAP	78	128	6
BRK	78	192	3
BRK	78	192	7
TAP	78	256	1
TAP	78	256	5
TAP	78	320	1
TAP	78	320	5
BRK	79	0	0
HLD	79	0	4	96
TAP	79	48	0
TAP	79	96	1
TAP	79	144	2
HLD	79	192	3	192
TAP	79	192	4
TAP	79	288	1
TAP	80	0	4
TAP	80	48	4
TAP	80	96	3
TAP	80	144	3
HLD	80	192	2	144
HLD	80	192	5	144
STR	81	0	4
SCR	81	0	4	96	48	6
TAP	81	48	3
TAP	81	96	2
STR	81	192	5
SCR	81	192	5	96	48	7
TAP	81	240	4
TAP	81	288	3
TAP	82	0	0
TAP	82	48	1
TAP	82	96	2
TAP	82	144	3
HLD	82	192	4	96
TTP	82	288	0	B	0	M1
TTP	82	288	1	B	0	M1
TTP	82	288	1	E	0	M1
TAP	83	0	4
TAP	83	0	5
HLD	83	48	3	144
TAP	83	48	6
TAP	83	144	2
TAP	83	192	2
TAP	83	288	1
TAP	83	288	5
TAP	83	336	1
TAP	83	336	5
TAP	84	0	0
TAP	84	0	4
TAP	84	48	0
TAP	84	48	4
TAP	84	96	3
TAP	84	96	7
TAP	84	144	3
TAP	84	144	7
XTP	84	192	0
XTP	84	216	1
XTP	84	240	2
XTP	84	264	3
XTP	84	288	4
XTP	84	312	5
XTP	84	336	6
XTP	84	360	7
BRK	85	0	0
TAP	85	96	4
TAP	85	96	5
BRK	85	144	3
BRK	85	144	6
TAP	85	240	3
TAP	85	240	4
TAP	85	288	3
TAP	85	288	4
BRK	85	336	1
BRK	85	336	6
TAP	86	96	2
TAP	86	96	3
TAP	86	192	4
TAP	86	192	5
TAP	86	288	0
TAP	86	288	7
XHO	87	0	2	96
XTP	87	0	7
XTP	87	16	6
XTP	87	32	5
XTP	87	48	4
XHO	87	144	3	96
XTP	87	144	7
XTP	87	160	6
XTP	87	176	5
XST	87	192	4
SF_	87	192	4	96	48	0
XTP	87	288	4
TTP	87	306	0	C	1	M1
TAP	88	192	0
TAP	88	192	7
TAP	88	240	0
TAP	88	240	7
TAP	88	288	0
TAP	88	288	7
TTP	89	0	0	C	0	M1
TTP	89	144	0	B	0	M1
TTP	89	144	0	E	0	M1
TTP	89	144	3	B	0	M1
TTP	89	144	4	E	0	M1
TTP	89	144	4	B	0	M1
TTP	89	144	7	B	0	M1
TTP	89	288	1	B	0	M1
TTP	89	288	2	B	0	M1
TTP	89	288	2	E	0	M1
TTP	89	288	5	B	0	M1
TTP	89	288	6	E	0	M1
TTP	89	288	6	B	0	M1
TAP	90	48	4
TAP	90	96	3
TAP	90	192	2
TAP	90	192	5
TAP	90	288	1
TAP	90	288	6
TAP	91	0	4
TAP	91	0	6
TAP	91	48	5
TAP	91	96	1
TAP	91	96	3
TAP	91	144	2
TAP	91	192	3
TAP	91	192	4
TAP	91	288	1
TAP	91	288	3
STR	91	336	1
SI_	91	336	1	96	48	6
TAP	91	336	3
TAP	92	48	4
STR	92	144	1
SI_	92	144	1	96	48	6
TAP	92	144	3
TAP	92	240	4
TAP	92	288	4
STR	93	0	0
SI_	93	0	0	96	48	2
STR	93	48	7
SI_	93	48	7	96	48	3
XTP	93	96	0
XTP	93	144	7
STR	93	192	0
SI_	93	192	0	96	48	4
STR	93	240	7
SI_	93	240	7	96	48	5
XTP	93	288	0
XTP	93	336	7
XTP	94	0	0
TAP	94	48	0
STR	94	96	0
SF_	94	96	0	96	48	4
BST	95	0	6
SCL	95	0	6	96	48	3
TAP	95	48	6
STR	95	96	7
SI_	95	96	7	96	48	2
TAP	95	144	7
STR	95	192	5
SCL	95	192	5	96	48	2
TAP	95	240	5
TAP	95	288	7
TAP	95	336	7
TAP	96	0	0
HLD	96	0	4	144
TAP	96	96	1
TAP	96	144	1
TAP	96	240	3
TAP	96	240	5
TAP	96	288	3
TAP	96	288	5
HLD	96	336	2	96
TAP	96	336	7
HLD	97	48	5	96
TAP	97	96	1
HLD	97	144	2	96
TAP	97	192	6
HLD	97	240	5	96
TAP	97	288	3
HLD	97	336	2	96
TAP	98	0	4
HLD	98	48	5	96
TAP	98	96	1
TAP	98	144	2
STR	98	192	4
SI_	98	192	4	96	48	7
SCL	98	192	4	96	48	7
STR	99	0	6
SI_	99	0	6	96	48	4
TAP	99	48	6
STR	99	96	0
SI_	99	96	0	96	48	2
TAP	99	144	0
STR	99	192	7
SI_	99	192	7	96	48	3
TAP	99	240	7
TAP	99	288	0
TAP	99	336	0
XST	100	0	4
SCL	100	0	4	96	48	2
SCR	100	0	4	96	48	6
XST	100	96	4
SSL	100	96	4	96	96	0
XTP	100	336	2
XTP	100	336	7
TAP	101	48	1
TAP	101	96	0
TAP	101	144	7
TAP	101	192	6
TAP	101	240	5
TAP	101	288	4
TAP	101	336	3
XTP	102	0	2
XTP	102	0	4
XTP	102	12	5
XTP	102	24	6
XTP	102	36	7
XTP	102	48	0
XTP	102	60	1
XTP	102	72	2
XTP	102	84	3
XST	102	96	4
SF_	102	96	4	96	48	0
BRK	102	192	4
TTP	102	210	0	C	1	M1
XTP	102	336	3
XTP	102	336	7
TAP	103	48	1
STR	103	96	2
SI_	103	96	2	96	48	7
TAP	103	144	3
TAP	103	192	4
TAP	103	240	5
STR	103	288	6
SCL	103	288	6	96	48	3
TAP	103	336	7
TAP	104	0	0
TAP	104	48	1
TAP	104	96	2
STR	104	144	3
SI_	104	144	3	96	48	0
STR	104	144	4
SI_	104	144	4	96	48	7
TAP	104	336	1
HLD	104	336	5	96
HLD	105	48	3	96
TAP	105	96	7
HLD	105	144	5	96
TAP	105	192	0
HLD	105	240	3	96
TAP	105	288	7
TAP	105	336	5
TAP	106	0	2
TAP	106	48	4
TAP	106	96	3
STR	106	96	4
SCR	106	96	4	96	96	3
TTP	106	288	0	E	0	M1
TTP	106	300	0	C	0	M1
TTP	106	312	4	B	0	M1
TTP	106	324	3	B	0	M1
HLD	107	0	5	1104
TTP	107	96	6	E	0	M1
TTP	107	108	0	C	0	M1
TTP	107	120	1	B	0	M1
TTP	107	120	2	E	0	M1
TTP	107	120	2	B	0	M1
TTP	107	240	0	E	0	M1
TTP	107	252	0	C	0	M1
TTP	107	264	3	B	0	M1
TTP	107	264	4	E	0	M1
TTP	107	264	4	B	0	M1
TTP	108	0	6	E	0	M1
TTP	108	12	0	C	0	M1
TTP	108	24	1	B	0	M1
TTP	108	24	2	E	0	M1
TTP	108	24	2	B	0	M1
TTP	108	144	0	E	0	M1
TTP	108	156	0	C	0	M1
TTP	108	168	3	B	0	M1
TTP	108	168	4	B	0	M1
TTP	108	168	4	E	0	M1
TTP	108	288	6	E	0	M1
TTP	108	300	0	C	0	M1
TTP	108	312	1	B	0	M1
TTP	108	312	2	B	0	M1
TTP	108	312	2	E	0	M1
TTP	109	0	0	E	0	M1
TTP	109	12	0	C	0	M1
TTP	109	24	3	B	0	M1
TTP	109	24	4	E	0	M1
TTP	109	24	4	B	0	M1
TTP	109	96	6	E	0	M1
TTP	109	108	0	C	0	M1
TTP	109	120	1	B	0	M1
TTP	109	120	2	B	0	M1
TTP	109	120	2	E	0	M1
TTP	109	192	0	E	0	M1
TTP	109	204	0	C	0	M1
TTP	109	216	3	B	0	M1
TTP	109	216	4	B	0	M1
TTP	109	216	4	E	0	M1
TTP	109	288	6	E	0	M1
TTP	109	300	0	C	0	M1
TTP	109	312	1	B	0	M1
TTP	109	312	2	E	0	M1
TTP	109	312	2	B	0	M1
TAP	110	48	0
TAP	110	96	1
TAP	110	144	2
TAP	110	192	3
TAP	110	192	5
TAP	110	240	4
TAP	110	288	3
TAP	110	288	5
TAP	110	336	4
TAP	111	0	3
TAP	111	0	5
TAP	111	48	4
STR	111	96	3
SV_	111	96	3	96	48	4
STR	111	96	5
SV_	111	96	5	96	48	4
STR	111	144	4
SI_	111	144	4	96	48	0
XTP	112	0	0
XTP	112	0	7
TAP	112	48	6
TAP	112	72	4
TAP	112	96	6
XTP	112	144	3
XTP	112	144	4
TAP	112	192	1
TAP	112	216	3
TAP	112	240	1
XTP	112	288	0
XTP	112	288	7
TAP	112	336	6
TAP	112	360	4
TAP	113	0	6
XTP	113	48	3
XTP	113	48	4
TAP	113	96	1
TAP	113	120	3
TAP	113	144	1
XTP	113	192	7
XTP	113	240	7
XTP	113	288	7
BRK	113	336	3
BRK	113	336	5
TAP	114	48	0
TAP	114	48	6
TAP	114	96	1
TAP	114	96	6
TAP	114	144	2
TAP	114	144	6
TAP	114	192	3
TAP	114	192	5
TAP	114	240	2
TAP	114	240	4
TAP	114	288	3
TAP	114	288	6
BRK	114	336	0
BRK	114	336	4

T_REC_TAP	499
T_REC_BRK	16
T_REC_XTP	89
T_REC_HLD	56
T_REC_XHO	6
T_REC_STR	96
T_REC_BST	2
T_REC_XST	6
T_REC_TTP	133
T_REC_THO	0
T_REC_SLD	107
T_REC_ALL	1010
T_NUM_TAP	823
T_NUM_BRK	18
T_NUM_HLD	62
T_NUM_SLD	107
T_NUM_ALL	1010
T_JUDGE_TAP	841
T_JUDGE_HLD	203
T_JUDGE_SLD	107
T_JUDGE_ALL	1151
TTM_EACHPAIRS	187
TTM_SCR_TAP	411500
TTM_SCR_BRK	46800
TTM_SCR_HLD	62000
TTM_SCR_SLD	160500
TTM_SCR_ALL	680800
TTM_SCR_S	658650
TTM_SCR_SS	679000
TTM_RAT_ACV	10026

