VERSION	0.00.00	1.03.00
FES_MODE	0
BPM_DEF	188.000	188.000	188.000	188.000
MET_DEF	4	4
RESOLUTION	384
CLK_DEF	384
COMPATIBLE_CODE	MA2

BPM	0	0	188.000
MET	0	0	4	4

XHO	1	0	6	144
XTP	1	0	7
XHO	1	144	4	144
XST	1	288	3
SCL	1	288	3	96	288	4
XTP	3	0	0
XHO	3	0	1	144
XHO	3	144	3	144
XST	3	288	4
SCR	3	288	4	96	288	3
XTP	5	0	7
XTP	5	48	7
TAP	5	144	1
TAP	5	240	0
TAP	5	240	1
TAP	5	336	6
TAP	6	48	6
TAP	6	48	7
TAP	6	144	1
TAP	6	240	0
TAP	6	240	1
TAP	6	336	2
TAP	6	336	7
TAP	7	48	3
TAP	7	48	4
TAP	7	144	6
TAP	7	240	6
TAP	7	240	7
TAP	7	336	1
TAP	8	48	0
TAP	8	48	1
STR	8	144	2
SI_	8	144	2	96	48	7
STR	8	144	3
SI_	8	144	3	96	48	6
XTP	9	0	0
XTP	9	48	0
TAP	9	144	6
TAP	9	240	6
TAP	9	240	7
TAP	9	336	1
TAP	10	48	0
TAP	10	48	1
TAP	10	144	6
TAP	10	240	6
TAP	10	240	7
TAP	10	336	0
TAP	10	336	5
TAP	11	48	3
TAP	11	48	4
TAP	11	144	1
TAP	11	240	0
TAP	11	240	1
TAP	11	336	6
TAP	12	48	6
TAP	12	48	7
STR	12	144	4
SI_	12	144	4	96	48	1
STR	12	144	5
SI_	12	144	5	96	48	0
XTP	13	0	7
XTP	13	48	7
TAP	13	144	0
TAP	13	144	6
TAP	13	240	1
TAP	13	240	7
TAP	13	336	0
TAP	13	336	6
TAP	14	48	1
TAP	14	48	7
TAP	14	144	0
TAP	14	144	6
TAP	14	240	1
TAP	14	240	7
TAP	14	336	0
TAP	14	336	5
TAP	15	48	3
TAP	15	48	4
TAP	15	144	6
TAP	15	144	7
TAP	15	240	0
TAP	15	240	1
TAP	15	336	6
TAP	15	336	7
TAP	16	48	0
TAP	16	48	1
STR	16	144	2
SI_	16	144	2	96	48	0
STR	16	144	7
SI_	16	144	7	96	48	3
XTP	17	0	0
XTP	17	48	0
TAP	17	144	1
TAP	17	144	7
TAP	17	240	0
TAP	17	240	6
TAP	17	336	1
TAP	17	336	7
TAP	18	48	0
TAP	18	48	6
TAP	18	144	1
TAP	18	144	7
TAP	18	240	0
TAP	18	240	6
TAP	18	336	2
TAP	18	336	7
TAP	19	48	3
TAP	19	48	4
TAP	19	144	0
TAP	19	144	1
TAP	19	240	6
TAP	19	240	7
TAP	19	336	0
TAP	19	336	1
TAP	20	48	6
TAP	20	48	7
TAP	20	144	0
TAP	20	144	5
STR	20	240	3
SUR	20	240	3	96	336	4
TAP	20	240	4
TAP	22	0	3
TAP	22	0	4
TAP	22	96	2
TAP	22	96	5
TAP	22	144	2
TAP	22	144	5
TAP	22	288	3
TAP	22	288	4
HLD	23	0	2	96
HLD	23	96	1	96
HLD	23	192	0	96
HLD	23	288	7	96
HLD	24	0	6	96
HLD	24	96	5	96
STR	24	192	4
SI_	24	192	4	96	48	0
STR	25	0	7
SI_	25	0	7	96	48	3
TAP	25	192	2
TAP	25	288	2
TAP	25	288	3
TAP	26	0	1
TAP	26	0	4
STR	26	96	1
SI_	26	96	1	96	48	4
STR	26	96	4
SI_	26	96	4	96	48	7
TAP	27	0	3
TAP	27	0	6
STR	27	96	3
SI_	27	96	3	96	48	0
STR	27	96	6
SI_	27	96	6	96	48	3
TAP	28	0	1
HLD	28	0	4	288
XTP	28	96	5
XTP	28	192	5
XST	28	288	5
SCR	28	288	5	96	192	2
TTP	29	288	0	C	1	M1
TTP	29	288	1	B	0	M1
TTP	29	288	2	B	0	M1
TTP	29	288	5	B	0	M1
TTP	29	288	6	B	0	M1
TAP	30	96	0
TAP	30	192	7
TAP	30	288	1
TAP	30	288	6
TAP	31	0	2
TAP	31	96	1
TAP	31	96	3
TAP	31	192	5
TAP	31	288	4
TAP	31	288	6
TAP	32	0	1
TAP	32	0	3
STR	32	96	1
SI_	32	96	1	96	48	3
STR	32	96	3
SI_	32	96	3	96	48	7
TAP	33	0	4
TAP	33	0	6
TAP	33	96	1
TAP	33	96	3
STR	33	192	4
SI_	33	192	4	96	48	0
STR	33	192	6
SI_	33	192	6	96	48	4
TAP	34	96	1
TAP	34	96	7
TAP	34	192	2
TAP	34	288	1
TAP	34	288	3
TAP	35	0	5
TAP	35	96	4
TAP	35	96	6
TAP	35	192	7
TAP	35	288	0
TAP	35	288	7
HLD	36	0	0	96
TAP	36	96	7
TAP	36	192	2
TAP	36	192	5
TAP	36	288	1
TAP	36	288	6
BRK	36	336	1
BRK	36	336	6
TTP	37	96	2	B	0	M1
TTP	37	96	3	E	0	M1
TTP	37	192	6	B	0	M1
TTP	37	192	7	E	0	M1
TTP	37	288	0	C	0	M1
XHO	38	0	4	144
XHO	38	144	5	144
XST	38	288	6
SXL	38	288	6	96	288	3
XHO	40	0	1	144
XHO	40	144	3	144
XST	40	288	5
SCR	40	288	5	96	192	2
XTP	41	192	4
XTP	41	288	0
XTP	41	288	7
HLD	42	0	2	96
TAP	42	96	3
HLD	42	192	5	96
TAP	42	288	4
HLD	43	0	1	96
TAP	43	96	2
HLD	43	192	6	96
TAP	43	288	5
XHO	44	0	0	96
XHO	44	0	7	96
XHO	44	144	1	96
XHO	44	144	6	96
XHO	44	288	2	96
XHO	44	288	5	96
XHO	45	48	3	96
XHO	45	48	4	96
TTP	45	192	0	E	0	M1
TTP	45	192	0	C	1	M1
TTP	45	192	4	E	0	M1
XST	46	0	1
SI_	46	0	1	96	48	3
XST	46	96	7
SI_	46	96	7	96	48	5
XST	46	192	0
SI_	46	192	0	96	48	4
TAP	47	0	2
TAP	47	0	6
TAP	47	96	0
TAP	47	96	1
TAP	47	144	0
TAP	47	144	1
STR	47	240	6
SI_	47	240	6	96	48	3
STR	47	240	7
SI_	47	240	7	96	48	2
STR	48	96	1
SI_	48	96	1	96	48	3
TAP	48	192	4
STR	48	288	1
SI_	48	288	1	96	48	4
TAP	49	0	5
STR	49	96	1
SI_	49	96	1	96	48	5
TAP	49	192	6
BRK	49	288	0
BRK	49	288	7
TAP	50	0	1
TAP	50	48	1
TAP	50	96	3
TAP	50	192	6
TAP	50	240	6
TAP	50	288	4
TAP	51	0	3
TAP	51	48	3
TAP	51	96	4
BRK	51	192	1
BRK	51	192	6
TAP	51	288	3
TAP	51	288	4
TAP	52	0	1
TAP	52	48	1
TAP	52	96	0
TAP	52	192	6
TAP	52	240	6
TAP	52	288	7
STR	53	0	1
SLR	53	0	1	96	144	7
STR	53	0	6
SLL	53	0	6	96	144	0
TTP	53	192	0	C	1	M1
HLD	54	0	1	96
TAP	54	0	6
HLD	54	96	3	96
HLD	54	192	4	96
HLD	54	288	6	96
TAP	55	0	7
TAP	55	96	0
TAP	55	96	1
STR	55	144	0
SI_	55	144	0	96	48	5
STR	55	144	1
SI_	55	144	1	96	48	4
TAP	56	0	6
TAP	56	48	6
TAP	56	96	7
TAP	56	192	1
TAP	56	240	1
TAP	56	288	0
STR	57	0	7
SCL	57	0	7	96	48	4
SCR	57	0	7	96	48	2
STR	57	192	7
SV_	57	192	7	96	48	2
SV_	57	192	7	96	48	4
XHO	58	96	3	96
XHO	58	96	5	96
XHO	58	240	1	96
XHO	58	240	4	96
XHO	59	0	2	96
XHO	59	0	6	96
XHO	59	144	0	96
XHO	59	144	4	96
XTP	59	288	0
XTP	59	288	4
XTP	60	0	1
XTP	60	0	5
XTP	60	96	2
XTP	60	96	6
XST	60	192	3
SCL	60	192	3	96	48	0
XST	60	192	7
SCL	60	192	7	96	48	4
TAP	61	96	0
HLD	61	96	4	480
TAP	61	192	1
TAP	61	288	2
TAP	62	0	3
STR	62	96	3
SI_	62	96	3	96	48	0
XTP	63	0	0
XTP	63	48	0
TAP	63	144	1
TAP	63	144	7
TAP	63	240	0
TAP	63	240	6
TAP	63	336	1
TAP	63	336	7
TAP	64	48	0
TAP	64	48	6
TAP	64	144	1
TAP	64	144	7
TAP	64	240	0
TAP	64	240	6
TAP	64	336	2
TAP	64	336	7
TAP	65	48	3
TAP	65	48	4
TAP	65	144	0
TAP	65	144	1
TAP	65	240	6
TAP	65	240	7
TAP	65	336	0
TAP	65	336	1
TAP	66	48	6
TAP	66	48	7
STR	66	144	0
SI_	66	144	0	96	48	4
STR	66	144	5
SI_	66	144	5	96	48	7
XTP	67	0	7
XTP	67	48	7
TAP	67	144	0
TAP	67	144	6
TAP	67	240	1
TAP	67	240	7
TAP	67	336	0
TAP	67	336	6
TAP	68	48	1
TAP	68	48	7
TAP	68	144	0
TAP	68	144	6
TAP	68	240	1
TAP	68	240	7
TAP	68	336	0
TAP	68	336	5
TAP	69	48	3
TAP	69	48	4
TAP	69	144	6
TAP	69	144	7
TAP	69	240	0
TAP	69	240	1
TAP	69	336	6
TAP	69	336	7
TAP	70	48	0
TAP	70	48	1
TAP	70	144	2
TAP	70	144	7
TAP	70	240	3
TAP	70	240	4
HLD	71	0	2	144
HLD	71	144	3	144
HLD	71	288	4	144
HLD	72	48	5	144
STR	72	192	4
SI_	72	192	4	96	48	2
HLD	73	0	5	144
HLD	73	144	4	144
HLD	73	288	3	144
HLD	74	48	2	144
STR	74	192	3
SI_	74	192	3	96	48	5
HLD	75	0	1	144
HLD	75	144	3	144
HLD	75	288	4	144
HLD	76	48	6	144
STR	76	192	4
SI_	76	192	4	96	48	0
HLD	77	0	7	144
HLD	77	144	0	144
TAP	77	288	7
XTP	78	0	1
XTP	78	64	2
XTP	78	128	3
XTP	78	192	4
XTP	78	256	5
XTP	78	320	6
BRK	79	0	0
BRK	79	0	7
TAP	79	192	2
TAP	79	192	4
TAP	79	288	3
TAP	79	288	5
HLD	80	0	4	384
TAP	80	96	2
HLD	80	192	3	192
TAP	81	96	3
TAP	81	96	4
TAP	81	192	5
TAP	81	288	4
TAP	82	0	3
STR	82	96	2
SI_	82	96	2	96	48	4
STR	82	192	6
SI_	82	192	6	96	48	0
TAP	83	0	1
TAP	83	48	1
TAP	83	144	0
TAP	83	144	2
TAP	83	192	0
TAP	83	192	2
TAP	83	288	5
TAP	83	288	7
TAP	83	336	5
TAP	83	336	7
TAP	84	48	3
TAP	84	48	4
TAP	84	96	3
STR	84	96	4
SUL	84	96	4	96	192	3
HLD	85	0	1	144
HLD	85	144	6	144
TAP	85	288	1
BRK	85	336	1
BRK	85	336	6
TAP	86	96	5
TAP	86	192	4
TAP	86	288	3
XHO	87	0	2	144
XHO	87	144	3	144
XST	87	288	4
SCR	87	288	4	96	288	3
XHO	89	0	5	144
XHO	89	144	4	144
XST	89	288	3
SUL	89	288	3	96	192	4
TAP	90	192	0
BRK	90	288	0
BRK	90	288	7
TAP	91	0	2
TAP	91	48	2
TAP	91	96	3
TAP	91	192	5
TAP	91	240	5
TAP	91	288	4
TAP	92	0	1
TAP	92	48	1
TAP	92	96	3
TAP	92	192	6
TAP	92	240	6
TAP	92	288	4
XHO	93	0	3	96
XHO	93	144	2	96
XHO	93	144	4	96
XHO	93	288	1	96
XHO	93	288	5	96
XHO	94	48	0	96
XHO	94	48	6	96
TTP	94	192	0	C	1	M1
TTP	94	192	3	B	0	M1
TTP	94	192	7	B	0	M1
XST	95	0	6
SI_	95	0	6	96	48	4
XST	95	96	0
SI_	95	96	0	96	48	2
XST	95	192	7
SI_	95	192	7	96	48	3
TAP	96	0	1
TAP	96	0	5
TAP	96	96	6
TAP	96	96	7
TAP	96	144	6
TAP	96	144	7
STR	96	240	0
SI_	96	240	0	96	48	5
STR	96	240	1
SI_	96	240	1	96	48	4
TAP	97	96	3
TAP	97	96	6
TAP	97	192	2
TAP	97	240	2
TAP	97	288	0
TAP	98	0	5
TAP	98	48	5
TAP	98	96	7
TAP	98	192	3
TAP	98	192	4
BRK	98	288	0
BRK	98	288	7
STR	99	0	6
SI_	99	0	6	96	48	4
TAP	99	96	3
STR	99	192	6
SI_	99	192	6	96	48	3
TAP	99	288	2
STR	100	0	6
SI_	100	0	6	96	48	2
TAP	100	96	1
BRK	100	192	0
BRK	100	192	7
TAP	100	288	3
TAP	100	288	4
TAP	101	0	6
TAP	101	48	6
TAP	101	96	7
TAP	101	192	1
TAP	101	240	1
TAP	101	288	0
STR	102	0	1
SLR	102	0	1	96	144	7
STR	102	0	6
SLL	102	0	6	96	144	0
TTP	102	192	0	C	1	M1
TAP	103	0	1
HLD	103	0	6	96
HLD	103	96	4	96
HLD	103	192	3	96
HLD	103	288	1	96
TAP	104	0	0
TAP	104	96	6
TAP	104	96	7
STR	104	144	6
SI_	104	144	6	96	48	3
STR	104	144	7
SI_	104	144	7	96	48	2
TAP	105	0	1
TAP	105	48	1
TAP	105	96	0
TAP	105	192	6
TAP	105	240	6
TAP	105	288	7
STR	106	0	0
SCL	106	0	0	96	48	5
SCR	106	0	0	96	48	3
STR	106	192	0
SV_	106	192	0	96	48	3
SV_	106	192	0	96	48	5
XHO	107	96	2	96
XHO	107	96	4	96
XHO	107	240	3	96
XHO	107	240	6	96
XHO	108	0	1	96
XHO	108	0	5	96
XHO	108	144	3	96
XHO	108	144	7	96
XTP	108	288	3
XTP	108	288	7
XTP	109	0	2
XTP	109	0	6
XTP	109	96	1
XTP	109	96	5
XST	109	192	0
SCR	109	192	0	96	48	3
XST	109	192	4
SCR	109	192	4	96	48	7
HLD	110	96	3	288
TAP	110	96	7
TAP	110	192	6
TAP	110	288	5
TAP	111	0	4
STR	111	96	3
SI_	111	96	3	96	48	0
STR	111	96	4
SI_	111	96	4	96	48	7
BRK	112	0	1
BRK	112	0	6
TAP	112	96	2
TAP	112	96	3
TAP	112	144	2
TAP	112	144	3
TAP	112	240	4
TAP	112	240	5
TAP	112	288	4
TAP	112	288	5
TAP	113	0	1
TAP	113	0	3
TAP	113	48	1
TAP	113	48	3
TAP	113	144	4
TAP	113	144	6
TAP	113	192	4
TAP	113	192	6
TAP	113	288	0
TAP	113	288	7
TAP	113	336	0
TAP	113	336	7
TAP	114	48	1
TAP	114	96	2
TAP	114	144	3
TAP	114	192	4
TAP	114	240	5
TAP	114	288	6
BRK	114	336	0
BRK	114	336	7

T_REC_TAP	341
T_REC_BRK	20
T_REC_XTP	37
T_REC_HLD	40
T_REC_XHO	43
T_REC_STR	50
T_REC_BST	0
T_REC_XST	17
T_REC_TTP	18
T_REC_THO	0
T_REC_SLD	71
T_REC_ALL	637
T_NUM_TAP	463
T_NUM_BRK	20
T_NUM_HLD	83
T_NUM_SLD	71
T_NUM_ALL	637
T_JUDGE_TAP	483
T_JUDGE_HLD	218
T_JUDGE_SLD	71
T_JUDGE_ALL	772
TTM_EACHPAIRS	172
TTM_SCR_TAP	231500
TTM_SCR_BRK	52000
TTM_SCR_HLD	83000
TTM_SCR_SLD	106500
TTM_SCR_ALL	473000
TTM_SCR_S	456900
TTM_SCR_SS	471000
TTM_RAT_ACV	10042

