VERSION	0.00.00	1.03.00
FES_MODE	0
BPM_DEF	188.000	188.000	188.000	188.000
MET_DEF	4	4
RESOLUTION	384
CLK_DEF	384
COMPATIBLE_CODE	MA2

BPM	0	0	188.000
MET	0	0	4	4

XST	1	0	2
SCR	1	0	2	96	288	5
XST	3	0	6
SCL	3	0	6	96	384	1
TAP	5	0	2
TAP	5	96	2
TAP	5	192	2
TAP	6	0	4
TAP	6	96	4
TAP	6	192	4
TAP	7	0	3
TAP	7	96	3
TAP	7	192	3
TAP	8	0	5
TAP	8	96	5
TAP	8	192	4
TAP	8	192	5
TAP	9	0	5
TAP	9	96	5
TAP	9	192	5
TAP	10	0	3
TAP	10	96	3
TAP	10	192	3
TAP	11	0	4
TAP	11	96	4
TAP	11	192	3
TAP	11	192	4
HLD	12	0	2	96
HLD	12	0	3	96
TAP	12	192	2
TAP	12	192	3
TAP	13	0	1
TAP	13	96	1
TAP	13	192	1
TAP	14	0	7
TAP	14	96	7
TAP	14	192	7
TAP	15	0	0
TAP	15	96	0
TAP	15	192	0
TAP	16	0	6
TAP	16	96	6
TAP	16	192	6
TAP	16	192	7
TAP	17	0	5
TAP	17	96	5
TAP	17	192	4
TAP	17	288	4
TAP	18	0	5
TAP	18	192	4
TAP	18	192	5
TAP	19	0	2
TAP	19	96	2
TAP	19	192	3
TAP	19	288	3
TAP	20	0	3
TAP	20	0	4
XTP	20	192	2
XTP	20	192	5
HLD	21	0	3	192
HLD	21	0	4	192
HLD	22	0	2	192
TAP	22	192	3
HLD	23	0	5	192
TAP	23	192	4
HLD	24	0	2	192
TAP	24	192	3
HLD	25	0	3	192
HLD	25	0	4	192
HLD	26	0	6	192
TAP	26	192	4
HLD	27	0	1	192
TAP	27	192	3
HLD	28	0	4	192
HLD	28	192	3	192
TAP	29	0	4
TAP	29	96	3
TAP	29	192	4
HLD	30	0	6	192
TAP	30	192	7
HLD	31	0	1	192
TAP	31	192	0
HLD	32	0	6	192
TAP	32	192	7
TAP	33	0	0
TAP	33	96	0
TAP	33	192	0
TAP	33	192	7
HLD	34	0	1	192
TAP	34	192	3
TAP	35	0	4
TAP	35	96	4
TAP	35	192	4
HLD	36	0	2	192
HLD	36	0	5	192
TAP	37	0	3
TAP	37	0	4
TAP	37	96	3
TAP	37	96	4
XTP	37	192	2
XTP	37	192	5
THO	38	0	0	384	C	0	L1
THO	40	0	0	384	C	0	L1
TTP	42	0	2	E	0	L1
TTP	42	96	2	B	0	L1
TTP	42	192	3	B	0	L1
TTP	43	0	6	E	0	L1
TTP	43	96	5	B	0	L1
TTP	43	192	4	B	0	L1
TTP	44	0	2	E	0	L1
TTP	44	0	2	B	0	L1
TTP	44	192	5	B	0	L1
TTP	44	192	6	E	0	L1
THO	45	0	0	192	C	0	L1
BRK	46	0	0
TAP	46	96	0
TAP	46	192	1
TAP	46	288	2
TAP	47	0	3
TAP	47	96	2
TAP	47	192	1
TAP	47	192	4
TAP	48	0	7
TAP	48	96	7
TAP	48	192	6
TAP	48	288	5
TAP	49	0	4
TAP	49	96	5
TAP	49	192	3
TAP	49	192	6
TAP	50	0	2
TAP	50	96	2
TAP	50	192	1
TAP	50	192	3
TAP	51	0	5
TAP	51	96	5
TAP	51	192	4
TAP	51	192	6
TAP	52	0	2
TAP	52	96	2
TAP	52	96	3
TAP	52	192	5
TAP	52	288	4
TAP	52	288	5
XTP	53	0	3
XTP	53	0	4
XTP	53	96	3
XTP	53	96	4
BRK	53	192	2
BRK	53	192	5
XHO	53	336	3	144
XHO	53	336	4	144
TAP	54	192	5
TAP	54	288	6
TAP	55	0	7
TAP	55	96	6
TAP	55	192	6
TAP	55	192	7
TAP	56	0	4
TAP	56	96	4
TAP	56	192	3
TAP	56	288	2
TAP	57	0	1
TAP	57	96	0
TAP	57	96	1
TAP	57	192	2
TAP	57	192	7
HLD	58	0	4	192
HLD	58	0	6	192
HLD	59	0	1	192
HLD	59	0	3	192
TAP	60	0	0
TAP	60	96	1
TAP	60	192	2
XTP	60	288	3
XTP	60	288	4
TAP	61	0	4
TAP	61	96	5
TAP	61	192	6
TAP	61	288	7
TAP	62	0	0
TAP	62	96	0
TAP	62	96	7
BRK	62	192	1
BRK	62	192	6
TAP	63	0	2
TAP	63	96	2
TAP	63	192	3
TAP	63	288	3
TAP	64	0	2
TAP	64	192	1
TAP	64	192	4
TAP	65	0	5
TAP	65	96	5
TAP	65	192	4
TAP	65	288	4
TAP	66	0	5
TAP	66	192	3
TAP	66	192	6
TAP	67	0	1
TAP	67	96	1
TAP	67	192	0
TAP	67	288	0
TAP	68	0	1
TAP	68	192	2
TAP	68	192	7
TAP	69	0	6
TAP	69	96	6
TAP	69	192	7
TAP	69	288	7
TAP	70	0	0
TAP	70	0	7
XTP	70	192	1
XTP	70	192	6
STR	71	0	2
SI_	71	0	2	96	288	7
TAP	72	192	6
STR	72	288	6
SI_	72	288	6	96	288	3
TAP	74	192	2
STR	74	288	2
SCL	74	288	2	96	288	7
TAP	76	192	6
STR	76	288	6
SCL	76	288	6	96	288	3
TTP	78	0	0	C	1	L1
XHO	79	0	1	192
HLD	79	192	2	192
HLD	80	0	3	192
TAP	80	192	4
HLD	81	0	6	192
HLD	81	192	5	192
HLD	82	0	4	192
TAP	82	192	3
HLD	83	0	2	192
HLD	83	192	1	192
HLD	84	0	0	192
TAP	84	192	7
HLD	85	0	1	192
HLD	85	0	6	192
HLD	86	0	2	192
HLD	86	0	5	192
THO	87	0	0	384	C	0	L1
TTP	87	0	1	B	0	L1
TTP	87	0	6	B	0	L1
THO	89	0	0	384	C	0	L1
TTP	89	0	2	B	0	L1
TTP	89	0	5	B	0	L1
TTP	91	0	2	E	0	L1
TTP	91	96	1	B	0	L1
TTP	91	192	0	B	0	L1
TTP	92	0	6	E	0	L1
TTP	92	96	6	B	0	L1
TTP	92	192	7	B	0	L1
TTP	93	0	2	B	0	L1
TTP	93	0	2	E	0	L1
TTP	93	192	5	B	0	L1
TTP	93	192	6	E	0	L1
THO	94	0	0	192	C	0	L1
XTP	95	0	0
TAP	95	96	0
TAP	95	192	1
TAP	95	288	2
TAP	96	0	2
TAP	96	0	3
TAP	96	96	2
TAP	96	96	3
TAP	96	192	1
TAP	96	192	4
TAP	97	0	7
TAP	97	96	7
TAP	97	192	6
TAP	97	288	5
TAP	98	0	4
TAP	98	0	5
TAP	98	96	4
TAP	98	96	5
TAP	98	192	3
TAP	98	192	6
TAP	99	0	3
TAP	99	96	2
TAP	99	192	1
TAP	99	192	4
TAP	100	0	4
TAP	100	96	5
TAP	100	192	3
TAP	100	192	6
TAP	101	0	1
TAP	101	96	0
TAP	101	96	1
TAP	101	192	6
TAP	101	288	6
TAP	101	288	7
TAP	102	0	0
TAP	102	0	7
XTP	102	96	0
XTP	102	96	7
BRK	102	192	1
BRK	102	192	6
XHO	102	336	0	144
XHO	102	336	7	144
TAP	103	192	1
TAP	103	288	2
TAP	104	0	2
TAP	104	0	3
TAP	104	96	1
TAP	104	96	4
TAP	104	192	0
TAP	104	192	5
TAP	105	0	0
TAP	105	96	0
TAP	105	192	7
TAP	105	288	6
TAP	106	0	4
TAP	106	0	5
TAP	106	96	3
TAP	106	96	6
XTP	106	192	2
XTP	106	192	7
HLD	107	0	1	192
HLD	107	0	3	192
HLD	108	0	4	192
HLD	108	0	6	192
TAP	109	0	3
TAP	109	96	2
TAP	109	192	0
TAP	109	192	1
XTP	109	288	0
XTP	109	288	1
TAP	110	0	7
TAP	110	96	6
TAP	110	192	5
TAP	110	288	4
TAP	111	0	3
TAP	111	0	4
TAP	111	96	2
TAP	111	96	5
BRK	111	192	1
BRK	111	192	6
STR	112	0	0
SCR	112	0	0	96	480	7
THO	113	336	0	384	C	1	L1

T_REC_TAP	224
T_REC_BRK	9
T_REC_XTP	19
T_REC_HLD	39
T_REC_XHO	5
T_REC_STR	5
T_REC_BST	0
T_REC_XST	2
T_REC_TTP	25
T_REC_THO	7
T_REC_SLD	7
T_REC_ALL	342
T_NUM_TAP	275
T_NUM_BRK	9
T_NUM_HLD	51
T_NUM_SLD	7
T_NUM_ALL	342
T_JUDGE_TAP	284
T_JUDGE_HLD	216
T_JUDGE_SLD	7
T_JUDGE_ALL	507
TTM_EACHPAIRS	67
TTM_SCR_TAP	137500
TTM_SCR_BRK	23400
TTM_SCR_HLD	51000
TTM_SCR_SLD	10500
TTM_SCR_ALL	222400
TTM_SCR_S	214900
TTM_SCR_SS	221500
TTM_RAT_ACV	10040

