VERSION	0.00.00	1.03.00
FES_MODE	0
BPM_DEF	188.000	188.000	188.000	188.000
MET_DEF	4	4
RESOLUTION	384
CLK_DEF	384
COMPATIBLE_CODE	MA2

BPM	0	0	188.000
MET	0	0	4	4

TAP	5	0	0
TAP	6	0	0
TAP	7	0	7
TAP	8	0	7
TAP	9	0	0
TAP	9	192	0
TAP	10	0	0
HLD	11	0	7	384
TAP	13	0	0
TAP	13	192	0
TAP	14	0	0
TAP	15	0	1
TAP	15	192	1
TAP	16	0	1
TAP	17	0	2
TAP	17	192	2
TAP	18	0	2
HLD	19	0	3	384
XTP	21	0	3
XTP	21	0	4
TAP	22	0	4
TAP	22	192	4
TAP	23	0	3
TAP	23	192	3
HLD	24	0	4	384
TAP	26	0	5
TAP	26	192	5
TAP	27	0	6
TAP	27	192	6
HLD	28	0	7	384
TAP	30	0	0
TAP	30	192	0
TAP	31	0	1
TAP	31	192	1
HLD	32	0	2	384
TAP	34	0	3
TAP	34	192	3
TAP	35	0	4
TAP	35	192	4
HLD	36	0	3	384
TTP	38	0	2	B	0	L1
TTP	39	0	1	B	0	L1
TTP	40	0	0	B	0	L1
TTP	41	0	7	B	0	L1
TTP	42	0	6	B	0	L1
TTP	43	0	5	B	0	L1
THO	44	0	0	384	C	1	L1
TAP	46	0	7
TAP	46	192	7
TAP	47	0	7
TAP	47	96	7
TAP	47	192	7
TAP	48	0	6
TAP	48	192	6
TAP	49	0	6
TAP	49	0	7
TAP	50	0	5
TAP	50	192	5
TAP	51	0	4
TAP	51	192	4
TAP	52	0	3
TAP	52	192	3
TAP	53	0	3
TAP	53	0	4
BRK	53	192	3
BRK	53	192	4
TAP	54	0	3
TAP	54	192	3
TAP	55	0	3
TAP	55	96	3
TAP	55	192	3
TAP	56	0	2
TAP	56	192	2
TAP	57	0	2
TAP	57	0	3
STR	58	0	1
SI_	58	0	1	96	288	5
HLD	60	0	0	384
HLD	60	0	7	384
TAP	62	0	0
TAP	62	96	0
TAP	62	192	0
STR	63	0	7
SI_	63	0	7	96	288	3
STR	65	0	0
SI_	65	0	0	96	288	4
STR	67	0	6
SI_	67	0	6	96	288	3
STR	69	0	1
SI_	69	0	1	96	288	4
HLD	71	0	5	384
HLD	73	0	4	384
HLD	75	0	3	384
HLD	77	0	2	384
TTP	79	0	1	B	0	L1
TTP	80	0	2	B	0	L1
TTP	81	0	3	B	0	L1
TTP	82	0	4	B	0	L1
TTP	83	0	5	B	0	L1
TTP	84	0	6	B	0	L1
TTP	85	0	0	B	0	L1
TTP	85	0	7	B	0	L1
TTP	86	0	1	B	0	L1
TTP	86	0	6	B	0	L1
THO	87	0	0	288	C	1	L1
HLD	89	0	0	288
HLD	89	0	7	288
TAP	91	0	7
TAP	91	192	7
TAP	92	0	0
TAP	92	192	0
TAP	93	0	0
TAP	93	0	7
TAP	93	192	0
TAP	93	192	7
TAP	94	0	7
TAP	94	96	0
BRK	94	192	7
TAP	95	0	0
TAP	95	96	0
TAP	95	192	0
TAP	96	0	1
TAP	96	96	1
TAP	96	192	1
TAP	97	0	2
TAP	97	96	2
TAP	97	192	2
TAP	98	0	3
TAP	98	0	4
TAP	98	192	3
TAP	98	192	4
HLD	99	0	5	192
TAP	100	0	5
TAP	100	96	5
TAP	100	192	5
HLD	101	0	6	192
TAP	102	0	6
TAP	102	96	6
XTP	102	192	6
XTP	102	192	7
TAP	103	0	7
TAP	103	96	7
TAP	103	192	7
TAP	104	0	6
TAP	104	96	6
TAP	104	192	6
TAP	105	0	5
TAP	105	96	5
TAP	105	192	5
TAP	106	0	3
TAP	106	0	4
TAP	106	96	3
TAP	106	96	4
TAP	106	192	2
TAP	106	192	5
STR	107	0	1
SI_	107	0	1	96	288	5
TAP	109	0	7
TAP	109	96	7
TAP	109	192	7
TAP	110	0	0
TAP	110	96	0
TAP	110	192	0
TAP	111	0	0
TAP	111	0	7
TAP	111	96	0
TAP	111	96	7
TAP	111	192	0
TAP	111	192	7
STR	112	0	0
SI_	112	0	0	96	288	3
STR	112	0	7
SI_	112	0	7	96	288	4
XHO	113	336	2	384
XHO	113	336	5	384

T_REC_TAP	116
T_REC_BRK	3
T_REC_XTP	4
T_REC_HLD	16
T_REC_XHO	2
T_REC_STR	8
T_REC_BST	0
T_REC_XST	0
T_REC_TTP	16
T_REC_THO	2
T_REC_SLD	8
T_REC_ALL	175
T_NUM_TAP	144
T_NUM_BRK	3
T_NUM_HLD	20
T_NUM_SLD	8
T_NUM_ALL	175
T_JUDGE_TAP	147
T_JUDGE_HLD	146
T_JUDGE_SLD	8
T_JUDGE_ALL	301
TTM_EACHPAIRS	20
TTM_SCR_TAP	72000
TTM_SCR_BRK	7800
TTM_SCR_HLD	20000
TTM_SCR_SLD	12000
TTM_SCR_ALL	111800
TTM_SCR_S	108200
TTM_SCR_SS	111500
TTM_RAT_ACV	10026

