VERSION	0.00.00	1.03.00
FES_MODE	0
BPM_DEF	212.000	212.000	212.000	212.000
MET_DEF	4	4
RESOLUTION	384
CLK_DEF	384
COMPATIBLE_CODE	MA2

BPM	0	0	212.000
MET	0	0	4	4

TAP	1	96	3
TAP	1	192	2
TAP	1	288	1
STR	2	0	0
SI_	2	0	0	96	288	4
TAP	2	288	7
TAP	2	336	7
TAP	3	0	7
STR	4	0	6
SI_	4	0	6	96	288	2
TAP	4	288	0
TAP	4	336	0
HLD	5	0	0	144
HLD	5	144	6	144
HLD	5	288	2	96
STR	6	0	3
SCR	6	0	3	96	288	6
TAP	6	288	0
TAP	6	336	1
TAP	7	0	2
TAP	7	96	7
TAP	7	192	6
TAP	7	288	5
TAP	8	0	3
TAP	8	0	4
TAP	8	192	0
TAP	8	192	5
TAP	9	0	2
TAP	9	0	6
TAP	9	192	1
STR	9	192	4
SUL	9	192	4	96	672	3
THO	11	48	0	144	C	0	M1
TAP	12	0	1
TAP	12	0	5
TAP	12	48	1
TAP	12	48	5
TAP	12	144	2
TAP	12	144	6
TAP	12	192	2
TAP	12	192	6
TAP	12	288	0
TAP	12	288	4
TAP	12	336	0
TAP	12	336	4
TAP	13	48	6
TAP	13	48	7
TAP	13	96	5
TAP	13	144	4
TAP	13	192	2
TAP	13	192	3
TAP	13	240	1
TAP	13	288	0
TAP	13	336	7
TAP	14	0	2
TAP	14	0	6
TAP	14	48	2
TAP	14	48	6
TAP	14	144	1
TAP	14	144	5
TAP	14	192	1
TAP	14	192	5
TAP	14	288	3
TAP	14	288	7
TAP	14	336	3
TAP	14	336	7
TAP	15	48	0
TAP	15	48	1
TAP	15	96	2
TAP	15	144	3
TAP	15	192	4
TAP	15	192	5
TAP	15	240	6
TAP	15	288	7
TAP	15	336	0
XTP	16	0	1
XTP	16	0	5
TAP	16	48	4
TAP	16	72	3
TAP	16	96	4
TAP	16	144	2
TAP	16	168	3
TAP	16	192	2
TAP	16	240	5
TAP	16	264	4
TAP	16	288	5
XTP	16	336	3
XTP	16	336	6
TAP	17	48	2
TAP	17	72	3
TAP	17	96	2
TAP	17	144	6
TAP	17	168	7
TAP	17	192	6
TAP	17	240	1
TAP	17	264	0
TAP	17	288	1
TAP	17	336	7
XTP	18	0	3
XTP	18	0	7
XTP	18	48	3
XTP	18	48	7
TAP	18	96	7
TAP	18	120	6
TAP	18	144	5
TAP	18	168	4
XTP	18	192	3
XTP	18	192	7
XTP	18	240	3
XTP	18	240	7
TAP	18	288	0
TAP	18	312	1
TAP	18	336	2
TAP	18	360	3
XTP	19	0	0
XTP	19	0	4
XTP	19	72	3
XTP	19	72	7
XTP	19	144	1
XTP	19	144	4
XTP	19	216	2
XTP	19	216	6
XST	19	288	0
SUL	19	288	0	96	288	2
XST	19	288	4
SUL	19	288	4	96	288	6
XTP	19	336	0
XTP	19	336	4
XTP	21	0	1
TAP	21	48	5
TAP	21	72	4
XTP	21	96	5
TAP	21	144	2
TAP	21	168	3
XTP	21	192	2
TAP	21	240	5
TAP	21	264	4
XTP	21	288	6
TAP	21	336	2
TAP	21	360	3
STR	22	0	0
SI_	22	0	0	96	48	4
BRK	22	96	0
TAP	22	96	6
TAP	22	192	5
TAP	22	240	2
TAP	22	288	1
STR	22	336	7
SF_	22	336	7	96	48	3
TAP	23	48	7
TAP	23	144	1
TAP	23	192	0
TAP	23	192	1
TAP	23	264	2
TAP	23	264	3
TAP	23	336	4
TAP	23	336	5
HLD	24	0	6	144
STR	24	0	7
SCR	24	0	7	96	36	2
TAP	24	144	3
TAP	24	168	4
TAP	24	192	5
TAP	24	216	6
TAP	24	240	7
TAP	24	264	0
TAP	24	288	1
TAP	24	312	2
TAP	24	336	3
STR	25	0	7
SI_	25	0	7	96	48	3
STR	25	96	1
SI_	25	96	1	96	48	5
STR	25	192	4
SI_	25	192	4	96	48	0
TAP	25	288	2
TAP	26	0	2
TAP	26	0	3
TAP	26	48	2
TAP	26	48	3
TAP	26	96	4
TAP	26	144	4
TAP	26	192	3
TAP	26	192	5
TAP	26	240	3
TAP	26	240	5
TAP	26	288	2
TAP	26	336	2
TAP	27	0	1
TAP	27	0	5
TAP	27	48	1
TAP	27	48	5
TAP	27	96	6
TAP	27	144	6
TAP	27	192	2
TAP	27	192	7
TAP	27	240	2
TAP	27	240	7
TAP	27	288	1
TAP	27	336	1
TAP	28	0	0
TAP	28	0	5
TAP	28	48	1
TAP	28	96	2
TAP	28	96	7
TAP	28	144	6
TAP	28	192	1
TAP	28	192	5
TAP	28	240	2
TAP	28	288	3
TAP	28	288	6
TAP	28	336	5
TAP	29	0	4
TAP	29	0	6
TAP	29	48	4
TAP	29	48	6
TAP	29	96	1
TAP	29	96	5
TAP	29	144	1
TAP	29	144	5
TAP	29	192	3
TAP	29	192	7
TAP	29	240	3
TAP	29	240	7
TAP	29	288	3
TAP	29	288	7
TAP	29	312	6
TAP	29	336	5
TAP	29	360	4
TAP	30	0	2
STR	30	0	3
SI_	30	0	3	96	48	7
TAP	30	96	1
BRK	30	96	3
TAP	30	192	2
TAP	30	240	1
TAP	30	288	0
STR	30	336	0
SF_	30	336	0	96	48	4
TAP	31	48	0
TAP	31	144	6
TAP	31	192	6
TAP	31	192	7
TAP	31	264	4
TAP	31	264	5
TAP	31	336	2
TAP	31	336	3
STR	32	0	0
SCL	32	0	0	96	36	5
HLD	32	0	1	144
TAP	32	144	4
TAP	32	168	3
TAP	32	192	2
TAP	32	216	1
TAP	32	240	0
TAP	32	264	7
TAP	32	288	6
TAP	32	312	5
TAP	32	336	4
STR	33	0	0
SI_	33	0	0	96	48	4
STR	33	96	6
SI_	33	96	6	96	48	2
STR	33	192	3
SI_	33	192	3	96	48	7
TAP	33	288	5
TAP	34	0	0
TAP	34	0	5
TAP	34	96	3
TAP	34	128	3
TAP	34	160	3
TAP	34	192	2
TAP	34	192	4
TAP	34	288	5
TAP	34	320	5
TAP	34	352	5
TAP	35	0	4
TAP	35	0	6
TAP	35	96	1
TAP	35	128	1
TAP	35	160	1
XTP	35	192	0
XTP	35	192	2
XTP	35	264	5
XTP	35	264	7
XTP	35	336	1
XTP	35	336	4
BRK	36	0	2
TAP	36	24	3
TAP	36	48	2
TAP	36	72	3
TAP	36	96	2
BRK	36	144	5
TAP	36	168	4
TAP	36	192	5
TAP	36	216	4
TAP	36	240	5
BRK	36	288	0
TAP	36	312	7
TAP	36	336	0
TAP	36	360	7
HLD	37	0	0	72
HLD	37	72	5	72
HLD	37	144	3	48
HLD	37	192	4	72
HLD	37	264	1	72
HLD	37	336	7	48
TAP	38	0	0
TAP	38	24	1
TAP	38	48	2
TAP	38	72	3
TAP	38	96	4
TAP	38	120	5
TAP	38	144	6
TAP	38	168	7
TAP	38	192	0
TAP	38	216	1
TAP	38	240	2
TAP	38	264	3
TAP	38	288	4
TAP	38	312	5
TAP	38	336	6
TAP	38	360	7
HLD	39	0	0	96
TAP	39	48	5
TAP	39	72	4
TAP	39	96	3
TAP	39	144	1
TAP	39	192	7
TAP	39	256	5
TAP	39	320	3
STR	40	0	1
SCR	40	0	1	96	192	4
TTP	40	192	0	C	0	M1
STR	41	0	6
SCL	41	0	6	96	192	2
TTP	41	192	0	C	0	M1
STR	42	0	0
SXR	42	0	0	96	480	5
STR	42	0	1
SXL	42	0	1	96	480	4
STR	44	0	6
SCL	44	0	6	96	192	3
TTP	44	192	0	C	0	M1
STR	45	0	1
SCR	45	0	1	96	192	5
TTP	45	192	0	C	0	M1
STR	46	0	6
SXR	46	0	6	96	480	3
STR	46	0	7
SXL	46	0	7	96	480	2
HLD	48	0	5	144
TAP	48	96	4
TAP	48	144	4
TAP	48	240	5
TAP	48	288	4
TAP	48	336	6
TTP	49	0	0	E	0	M1
TTP	49	0	7	E	0	M1
TTP	49	96	1	E	0	M1
TTP	49	96	6	E	0	M1
TTP	49	192	2	E	0	M1
TTP	49	192	5	E	0	M1
TTP	49	288	3	E	0	M1
TTP	49	288	4	E	0	M1
HLD	50	0	2	144
TAP	50	96	3
TAP	50	144	3
TAP	50	240	2
TAP	50	288	3
TAP	50	336	1
TTP	51	0	0	E	0	M1
TTP	51	0	1	E	0	M1
TTP	51	96	2	B	0	M1
TTP	51	120	3	B	0	M1
TTP	51	144	4	E	0	M1
TTP	51	192	5	B	0	M1
TTP	51	192	6	E	0	M1
TTP	51	288	1	B	0	M1
TTP	51	288	1	E	0	M1
HLD	52	0	6	144
TAP	52	96	4
TAP	52	144	4
TAP	52	240	5
TAP	52	288	4
TAP	52	336	6
TTP	53	0	0	E	0	M1
TTP	53	0	1	E	0	M1
TTP	53	0	7	E	0	M1
TTP	53	96	3	E	0	M1
TTP	53	96	4	E	0	M1
TTP	53	96	5	E	0	M1
TAP	53	192	2
TAP	53	224	3
TAP	53	256	1
TAP	53	288	5
TAP	53	320	4
TAP	53	352	6
TAP	54	0	2
TAP	54	0	7
STR	54	48	2
SI_	54	48	2	96	48	6
TAP	54	48	7
TAP	54	144	2
STR	54	144	7
SI_	54	144	7	96	48	3
STR	54	240	1
SCL	54	240	1	96	96	6
TAP	54	240	7
TAP	54	336	1
TAP	54	336	6
TAP	55	48	5
TAP	55	96	3
TAP	55	120	4
TAP	55	144	3
TAP	55	192	2
TAP	55	240	7
TAP	55	288	1
TAP	55	288	6
TAP	56	0	0
TAP	56	0	5
TAP	56	48	0
STR	56	48	5
SI_	56	48	5	96	48	1
STR	56	144	0
SI_	56	144	0	96	48	4
TAP	56	144	5
TAP	56	240	0
STR	56	240	6
SCR	56	240	6	96	96	1
TAP	56	336	1
TAP	56	336	6
TAP	57	48	2
TAP	57	96	4
TAP	57	120	3
TAP	57	144	4
TAP	57	192	2
TAP	57	216	3
TAP	57	240	2
TAP	57	288	1
TAP	57	288	4
TAP	58	0	3
TAP	58	0	6
TAP	58	48	5
TAP	58	72	4
TAP	58	96	5
TAP	58	144	2
TAP	58	168	3
TAP	58	192	2
TAP	58	240	5
TAP	58	264	4
TAP	58	288	6
TAP	58	336	2
TAP	58	360	3
STR	59	0	1
SXR	59	0	1	96	384	4
TTP	59	144	7	B	0	M1
TTP	59	288	5	E	0	M1
TTP	60	48	6	E	0	M1
TAP	60	192	2
TAP	60	192	3
TAP	60	264	1
TAP	60	264	4
TAP	60	336	0
TAP	60	336	5
STR	61	0	6
SXL	61	0	6	96	384	3
TTP	61	144	0	B	0	M1
TTP	61	288	3	E	0	M1
TTP	62	48	2	E	0	M1
TAP	62	192	2
TAP	62	192	5
TAP	62	288	3
TAP	62	288	4
HLD	63	0	1	144
HLD	63	0	6	144
TAP	63	240	3
TAP	63	240	4
TAP	63	288	3
TAP	63	288	4
HLD	64	0	2	96
TAP	64	0	7
TAP	64	96	3
TAP	64	192	0
HLD	64	192	5	96
TAP	64	288	4
TAP	65	0	6
TAP	65	0	7
TAP	65	96	2
TAP	65	96	3
TAP	65	192	0
TAP	65	192	1
TAP	65	288	4
TAP	65	288	5
TAP	66	0	3
TAP	66	0	5
TAP	66	48	2
TAP	66	48	4
TAP	66	96	1
TAP	66	96	3
TAP	66	144	0
TAP	66	144	2
TAP	66	192	1
TAP	66	192	3
TAP	66	240	2
TAP	66	240	4
TAP	66	288	3
TAP	66	288	5
TAP	66	336	4
TAP	66	336	6
HLD	67	0	7	144
TAP	67	96	5
HLD	67	144	5	144
TAP	67	240	3
HLD	67	288	3	144
TAP	68	0	1
HLD	68	48	1	144
TAP	68	144	7
HLD	68	192	7	144
TAP	68	264	0
TAP	68	336	1
HLD	69	0	2	144
TAP	69	96	3
HLD	69	144	4	144
TAP	69	240	5
HLD	69	288	6	144
TAP	70	0	7
HLD	70	48	0	144
TAP	70	144	1
TAP	70	192	2
TAP	70	288	3
TAP	70	288	4
TAP	71	0	2
TAP	71	0	5
TAP	71	96	3
TAP	71	120	4
TAP	71	144	3
TAP	71	168	4
TAP	71	192	2
TAP	71	192	5
TAP	71	288	1
TAP	71	312	0
TAP	71	336	1
TAP	71	360	0
TAP	72	0	2
TAP	72	0	7
TAP	72	96	6
TAP	72	120	7
TAP	72	144	6
TAP	72	168	7
TAP	72	192	0
TAP	72	192	5
TAP	72	288	2
TAP	72	288	3
STR	73	0	0
SI_	73	0	0	96	48	4
TAP	73	48	1
TAP	73	48	7
BRK	73	96	0
TAP	73	96	6
STR	73	192	7
SI_	73	192	7	96	48	3
TAP	73	240	0
TAP	73	240	6
TAP	73	288	1
BRK	73	288	7
TAP	74	0	0
TTP	74	48	6	E	0	M1
TTP	74	72	5	B	0	M1
TTP	74	96	4	B	0	M1
TTP	74	144	2	E	0	M1
TTP	74	168	2	B	0	M1
TTP	74	192	3	B	0	M1
TAP	74	240	6
TAP	74	288	0
TAP	74	312	7
TAP	74	336	0
XTP	75	0	0
XTP	75	0	7
TAP	75	24	6
TAP	75	48	5
TAP	75	72	4
TAP	75	96	3
TAP	75	120	2
TAP	75	144	1
TAP	75	168	0
TAP	75	192	3
TAP	75	192	7
TAP	75	216	4
TAP	75	240	5
TAP	75	264	6
TAP	75	288	7
TAP	75	312	0
TAP	75	336	1
TAP	75	360	2
XTP	76	0	3
XTP	76	0	7
TAP	76	48	3
TAP	76	48	7
XTP	76	96	1
XTP	76	96	5
TAP	76	144	1
TAP	76	144	5
XTP	76	192	2
XTP	76	192	6
TAP	76	240	2
TAP	76	240	6
XST	76	288	0
SV_	76	288	0	96	480	3
XST	76	288	4
SV_	76	288	4	96	480	7
TAP	76	336	0
TAP	76	336	4
XTP	78	192	3
XTP	78	192	4
XTP	78	264	2
XTP	78	264	5
XTP	78	336	1
XTP	78	336	6
STR	79	0	0
SI_	79	0	0	96	48	4
STR	79	0	7
SI_	79	0	7	96	48	3
BRK	79	96	0
BRK	79	96	7
TAP	79	192	0
TAP	79	216	1
TAP	79	240	2
TAP	79	264	3
TAP	79	288	4
TAP	79	312	5
TAP	79	336	6
TAP	79	360	7
STR	80	0	0
SI_	80	0	0	96	48	2
SI_	80	0	0	96	48	3
STR	80	96	0
SI_	80	96	0	96	48	5
SI_	80	96	0	96	48	6
STR	80	192	0
SI_	80	192	0	96	48	4
TAP	80	288	0
TAP	81	0	3
TAP	81	0	5
TAP	81	48	3
TAP	81	48	5
TAP	81	96	4
TAP	81	120	3
TAP	81	144	4
TAP	81	192	2
TAP	81	192	4
TAP	81	240	2
TAP	81	240	4
TAP	81	288	3
TAP	81	312	4
TAP	81	336	3
TAP	82	0	4
TAP	82	0	6
TAP	82	48	4
TAP	82	48	6
TAP	82	96	5
TAP	82	120	4
TAP	82	144	5
TAP	82	192	1
TAP	82	192	3
TAP	82	240	1
TAP	82	240	3
TAP	82	288	2
TAP	82	312	3
TAP	82	336	2
TAP	83	0	0
TAP	83	0	4
TAP	83	24	1
TAP	83	48	2
TAP	83	72	3
TAP	83	96	0
TAP	83	96	4
TAP	83	120	5
TAP	83	144	6
TAP	83	168	7
TAP	83	192	0
TAP	83	192	4
TAP	83	216	1
TAP	83	240	2
TAP	83	264	3
TAP	83	288	0
TAP	83	288	4
TAP	83	312	5
TAP	83	336	6
TAP	83	360	7
TAP	84	0	0
TAP	84	0	4
TAP	84	48	0
TAP	84	48	4
TAP	84	96	1
TAP	84	96	5
TAP	84	144	1
TAP	84	144	5
TAP	84	192	2
TAP	84	192	6
TAP	84	240	2
TAP	84	240	6
TAP	84	288	3
TAP	84	304	4
TAP	84	320	5
TAP	84	336	6
TAP	84	352	7
TAP	84	368	0
TAP	85	0	1
STR	85	0	4
SI_	85	0	4	96	48	0
BRK	85	96	4
TAP	85	96	6
TAP	85	192	5
TAP	85	240	6
TAP	85	288	7
STR	85	336	0
SI_	85	336	0	96	48	3
STR	85	336	1
SI_	85	336	1	96	48	5
TAP	86	48	0
TAP	86	48	1
TAP	86	144	7
TAP	86	192	4
TAP	86	192	6
TAP	86	264	2
TAP	86	264	3
TAP	86	336	1
TAP	86	336	7
STR	87	0	6
SI_	87	0	6	96	48	2
STR	87	0	7
SI_	87	0	7	96	48	4
TAP	87	96	6
TAP	87	96	7
TAP	87	192	7
TAP	87	216	6
TAP	87	240	5
TAP	87	264	4
TAP	87	288	3
TAP	87	312	2
TAP	87	336	1
TAP	87	360	0
STR	88	0	7
SI_	88	0	7	96	48	4
SI_	88	0	7	96	48	5
STR	88	96	7
SI_	88	96	7	96	48	1
SI_	88	96	7	96	48	2
STR	88	192	7
SI_	88	192	7	96	48	3
TAP	88	288	7
TAP	89	0	2
HLD	89	0	4	96
TAP	89	96	3
TAP	89	128	3
TAP	89	160	3
HLD	89	192	2	96
TAP	89	192	4
TAP	89	288	5
TAP	89	320	5
TAP	89	352	5
TAP	90	0	3
HLD	90	0	6	96
TAP	90	96	1
TAP	90	128	1
TAP	90	160	1
TAP	90	192	0
TAP	90	192	2
TAP	90	264	3
TAP	90	264	5
TAP	90	336	0
TAP	90	336	6
XTP	91	0	0
XTP	91	0	7
TAP	91	16	1
TAP	91	32	2
TAP	91	48	3
TAP	91	64	4
TAP	91	80	5
TAP	91	96	6
TAP	91	112	7
TAP	91	128	0
XTP	91	144	1
XTP	91	144	6
TAP	91	160	5
TAP	91	176	4
TAP	91	192	3
TAP	91	208	2
TAP	91	224	1
TAP	91	240	0
TAP	91	256	7
TAP	91	272	6
XTP	91	288	2
XTP	91	288	5
TAP	91	304	3
TAP	91	320	4
TAP	91	336	5
TAP	91	352	6
TAP	91	368	7
XTP	92	0	0
XTP	92	0	4
XTP	92	72	5
XTP	92	72	7
XTP	92	144	4
XTP	92	144	6
XTP	92	192	3
XTP	92	192	7
XTP	92	264	0
XTP	92	264	2
XTP	92	336	1
XTP	92	336	3
XHO	93	0	0	144
XST	93	0	6
SI_	93	0	6	96	432	2
HLD	93	288	3	144
HLD	94	192	0	72
HLD	94	264	1	72
TAP	94	336	2
STR	95	0	1
SI_	95	0	1	96	432	5
HLD	95	0	3	144
HLD	95	288	6	144
HLD	96	192	7	72
HLD	96	264	6	72
TAP	96	336	5
STR	97	0	4
SI_	97	0	4	96	48	0
TAP	97	0	6
HLD	97	96	7	192
TAP	97	288	1
TAP	98	0	1
TAP	98	24	0
TAP	98	48	1
TAP	98	72	0
TAP	98	96	2
TAP	98	120	7
TAP	98	144	2
TAP	98	168	7
TAP	98	192	3
TAP	98	216	6
TAP	98	240	3
TAP	98	264	6
HLD	98	288	4	48
TAP	98	336	5
HLD	99	0	6	96
TAP	99	96	4
HLD	99	144	2	96
TAP	99	240	3
TAP	99	288	4
STR	99	336	3
SI_	99	336	3	96	48	7
TAP	99	336	5
HLD	100	48	6	96
BRK	100	192	0
BRK	100	192	1
BRK	100	264	2
BRK	100	264	4
BRK	100	336	5
BRK	100	336	7
XTP	101	0	0
TAP	101	24	1
TAP	101	48	2
TAP	101	72	3
TAP	101	96	4
XTP	101	144	0
TAP	101	168	1
TAP	101	192	2
TAP	101	216	3
TAP	101	240	4
XTP	101	288	0
TAP	101	312	1
TAP	101	336	2
TAP	101	360	3
BRK	102	0	7
TAP	102	24	6
TAP	102	48	5
TAP	102	72	4
BRK	102	96	6
TAP	102	120	5
TAP	102	144	4
TAP	102	168	3
BRK	102	192	5
TAP	102	208	4
TAP	102	224	3
TAP	102	240	2
TAP	102	256	1
TAP	102	272	0
TAP	102	288	7
TAP	102	304	6
TAP	102	320	5
TAP	102	336	4
TAP	102	352	3
TAP	102	368	2
XTP	103	0	7
TAP	103	24	6
TAP	103	48	5
TAP	103	72	4
TAP	103	96	3
XTP	103	144	7
TAP	103	168	6
TAP	103	192	5
TAP	103	216	4
TAP	103	240	3
XTP	103	288	7
TAP	103	312	6
TAP	103	336	5
TAP	103	360	4
BRK	104	0	0
TAP	104	24	1
TAP	104	48	2
TAP	104	72	3
BRK	104	96	1
TAP	104	120	2
TAP	104	144	3
TAP	104	168	4
BRK	104	192	2
TAP	104	208	3
TAP	104	224	4
TAP	104	240	5
TAP	104	256	6
TAP	104	272	7
STR	104	288	0
SI_	104	288	0	96	24	4
TAP	104	304	1
TAP	104	320	2
TAP	104	336	3
TAP	104	352	4
TAP	104	368	5
XST	105	0	6
SI_	105	0	6	96	24	3
XST	105	72	1
SI_	105	72	1	96	24	4
XST	105	144	7
SI_	105	144	7	96	24	3
XST	105	216	2
SI_	105	216	2	96	24	5
XST	105	288	6
SI_	105	288	6	96	24	3
XST	105	360	0
SI_	105	360	0	96	24	4
XST	106	48	7
SI_	106	48	7	96	24	3
XST	106	120	1
SI_	106	120	1	96	24	4
XST	106	192	5
SI_	106	192	5	96	24	2
XST	106	264	3
SI_	106	264	3	96	24	0
XTP	106	336	7
BRK	107	0	7
TAP	107	16	6
TAP	107	32	5
TAP	107	48	4
TAP	107	64	3
TAP	107	80	2
BRK	107	144	0
TAP	107	160	1
TAP	107	176	2
TAP	107	192	3
TAP	107	208	4
TAP	107	224	5
BRK	107	288	4
BRK	107	288	7
TAP	107	304	3
TAP	107	304	6
TAP	107	320	2
TAP	107	320	5
TAP	107	336	1
TAP	107	336	4
TAP	107	352	0
TAP	107	352	3
TAP	107	368	2
TAP	107	368	7
BRK	108	48	0
BRK	108	48	3
TAP	108	64	1
TAP	108	64	4
TAP	108	80	2
TAP	108	80	5
TAP	108	96	3
TAP	108	96	6
TAP	108	112	4
TAP	108	112	7
TAP	108	128	0
TAP	108	128	5
BRK	108	192	7
TAP	108	204	6
TAP	108	216	5
TAP	108	228	4
TAP	108	240	3
TAP	108	252	2
TAP	108	264	1
TAP	108	276	0
TAP	108	288	7
TAP	108	300	6
TAP	108	312	5
TAP	108	324	4
TAP	108	336	3
TAP	108	348	2
TAP	108	360	1
TAP	108	372	0
STR	109	0	3
SV_	109	0	3	96	48	0
STR	109	0	7
SV_	109	0	7	96	48	4
BST	109	96	3
SUL	109	96	3	96	1056	1
BST	109	96	7
SUL	109	96	7	96	1056	5
TTP	109	120	0	C	1	M1
TAP	113	96	1
TAP	113	192	4
TAP	113	240	2
TAP	113	288	5
TAP	113	336	3
TAP	114	48	6
TAP	114	144	2
TAP	114	240	5
TAP	114	288	3
TAP	114	336	4
TTP	115	96	7	B	0	M1
TTP	115	192	3	B	0	M1
TTP	115	240	5	B	0	M1
TTP	115	288	1	B	0	M1
TTP	115	336	7	E	0	M1
TTP	116	48	0	E	0	M1
TTP	116	144	6	E	0	M1
TTP	116	240	2	B	0	M1
TTP	116	288	5	E	0	M1
TTP	116	336	0	C	0	M1

T_REC_TAP	692
T_REC_BRK	29
T_REC_XTP	71
T_REC_HLD	43
T_REC_XHO	1
T_REC_STR	53
T_REC_BST	2
T_REC_XST	15
T_REC_TTP	50
T_REC_THO	1
T_REC_SLD	74
T_REC_ALL	1031
T_NUM_TAP	881
T_NUM_BRK	31
T_NUM_HLD	45
T_NUM_SLD	74
T_NUM_ALL	1031
T_JUDGE_TAP	912
T_JUDGE_HLD	112
T_JUDGE_SLD	74
T_JUDGE_ALL	1098
TTM_EACHPAIRS	193
TTM_SCR_TAP	440500
TTM_SCR_BRK	80600
TTM_SCR_HLD	45000
TTM_SCR_SLD	111000
TTM_SCR_ALL	677100
TTM_SCR_S	653800
TTM_SCR_SS	674000
TTM_RAT_ACV	10045

