VERSION	0.00.00	1.03.00
FES_MODE	0
BPM_DEF	212.000	212.000	212.000	212.000
MET_DEF	4	4
RESOLUTION	384
CLK_DEF	384
COMPATIBLE_CODE	MA2

BPM	0	0	212.000
MET	0	0	4	4

TAP	1	96	5
TAP	1	192	4
TAP	1	288	3
TAP	2	0	2
HLD	2	0	5	384
STR	3	0	2
SCR	3	0	2	96	288	5
HLD	4	0	3	384
TAP	5	0	2
TAP	5	144	3
TAP	5	288	4
HLD	6	0	4	384
TAP	7	0	2
TAP	7	96	3
TAP	7	192	4
TAP	7	288	5
HLD	8	0	5	192
TAP	8	192	4
HLD	9	0	2	192
STR	9	192	3
SI_	9	192	3	96	516	7
XST	11	36	3
SF_	11	36	3	96	156	7
TAP	12	0	2
TAP	12	0	4
TAP	12	48	2
TAP	12	48	4
TAP	12	144	3
TAP	12	144	6
TAP	12	192	3
TAP	12	192	6
TAP	12	288	0
TAP	12	288	4
STR	12	336	0
SCL	12	336	0	96	240	1
TAP	12	336	4
TAP	14	0	3
TAP	14	0	5
TAP	14	48	3
TAP	14	48	5
TAP	14	144	1
TAP	14	144	4
TAP	14	192	1
TAP	14	192	4
TAP	14	288	3
TAP	14	288	7
TAP	14	336	3
STR	14	336	7
SCR	14	336	7	96	240	6
BRK	16	0	2
BRK	16	0	7
TAP	16	96	4
TAP	16	144	4
TAP	16	192	2
TAP	16	240	3
TAP	16	288	2
TAP	16	336	1
TAP	16	336	4
TAP	17	48	4
TAP	17	96	3
TAP	17	144	3
TAP	17	192	5
TAP	17	240	4
TAP	17	288	5
TAP	17	336	4
TAP	18	0	3
TAP	18	0	6
TAP	18	48	3
TAP	18	48	6
TAP	18	192	1
TAP	18	192	4
TAP	18	240	1
TAP	18	240	4
XTP	19	0	3
XTP	19	0	5
XTP	19	72	2
XTP	19	72	4
XTP	19	144	3
XTP	19	144	6
XTP	19	216	1
XTP	19	216	4
XTP	19	288	0
XTP	19	288	7
XST	19	336	1
SCR	19	336	1	96	240	7
XST	19	336	6
SCL	19	336	6	96	240	0
XTP	21	0	0
XTP	21	0	1
TAP	21	96	2
TAP	21	96	3
TAP	21	192	4
TAP	21	192	5
STR	21	288	6
SI_	21	288	6	96	48	2
STR	21	288	7
SI_	21	288	7	96	48	3
BRK	22	96	0
BRK	22	96	5
TAP	22	192	2
TAP	22	240	3
TAP	22	288	2
STR	22	336	1
SI_	22	336	1	96	48	4
TAP	22	336	4
TAP	23	48	6
HLD	23	96	6	96
XTP	23	192	4
XTP	23	264	0
XTP	23	264	7
XTP	23	336	1
XTP	23	336	3
STR	24	0	1
SI_	24	0	1	96	48	4
STR	24	0	3
SI_	24	0	3	96	48	6
TAP	24	192	7
TAP	24	240	0
TAP	24	288	1
TAP	24	336	2
HLD	25	0	3	96
HLD	25	0	6	96
HLD	25	192	1	96
HLD	25	192	3	96
TAP	26	0	3
STR	26	0	6
SI_	26	0	6	96	48	4
TAP	26	48	3
STR	26	192	1
SI_	26	192	1	96	48	3
TAP	26	192	5
TAP	26	240	5
TAP	27	0	0
STR	27	0	6
SI_	27	0	6	96	48	2
TAP	27	48	0
STR	27	192	1
SI_	27	192	1	96	48	5
TAP	27	192	7
TAP	27	240	7
HLD	28	0	6	96
HLD	28	96	4	96
HLD	28	192	3	96
HLD	28	288	1	96
TAP	29	0	5
TAP	29	48	5
TAP	29	96	0
TAP	29	144	0
TAP	29	192	6
TAP	29	216	7
TAP	29	240	6
TAP	29	264	7
BRK	29	288	6
TAP	30	0	3
TAP	30	0	4
TTP	30	96	0	C	1	M1
TTP	30	96	2	B	0	M1
TTP	30	96	5	B	0	M1
XTP	30	192	0
XTP	30	192	7
TAP	30	288	6
STR	30	336	6
SI_	30	336	6	96	48	3
TAP	31	48	1
HLD	31	96	1	96
XTP	31	192	3
XTP	31	264	0
XTP	31	264	7
XTP	31	336	4
XTP	31	336	6
STR	32	0	4
SI_	32	0	4	96	48	1
STR	32	0	6
SI_	32	0	6	96	48	3
TAP	32	192	0
TAP	32	240	7
TAP	32	288	6
TAP	32	336	5
HLD	33	0	1	96
HLD	33	0	4	96
HLD	33	192	4	96
HLD	33	192	6	96
TAP	34	0	1
TAP	34	0	4
TAP	34	96	1
TAP	34	128	0
TAP	34	160	1
STR	34	192	0
SI_	34	192	0	96	48	4
TAP	34	288	2
TAP	35	0	3
TAP	35	0	6
TAP	35	96	6
TAP	35	128	7
TAP	35	160	6
STR	35	192	7
SI_	35	192	7	96	48	3
TAP	35	288	5
TAP	36	0	1
TAP	36	0	4
TAP	36	96	7
TAP	36	144	4
TAP	36	144	6
TAP	36	240	0
TAP	36	288	1
TAP	36	288	3
XHO	37	0	6	72
HLD	37	72	5	72
TAP	37	144	4
XHO	37	192	0	72
HLD	37	264	1	72
TAP	37	336	2
BST	38	0	3
SXR	38	0	3	96	480	0
BST	38	0	7
SXR	38	0	7	96	480	4
TAP	40	0	4
HLD	40	0	5	768
TAP	40	192	3
TAP	40	288	3
TAP	41	0	4
TAP	41	192	6
TAP	41	288	6
STR	42	0	6
SSL	42	0	6	96	480	2
TTP	42	192	7	E	0	M1
TTP	43	0	5	E	0	M1
TTP	43	192	0	C	0	M1
HLD	44	0	2	768
TAP	44	0	3
TAP	44	192	4
TAP	44	288	4
TAP	45	0	3
TAP	45	192	1
TAP	45	288	1
STR	46	0	1
SSR	46	0	1	96	480	5
TTP	46	192	1	E	0	M1
TTP	47	0	3	E	0	M1
TTP	47	192	0	C	0	M1
HLD	48	0	4	144
HLD	48	0	5	384
TAP	48	240	6
TAP	48	288	6
HLD	49	0	7	96
TTP	49	96	7	E	0	M1
TTP	49	192	2	E	0	M1
TTP	49	192	6	E	0	M1
TTP	49	288	5	E	0	M1
HLD	50	0	2	384
HLD	50	0	3	144
TAP	50	240	1
TAP	50	288	1
HLD	51	0	0	96
TTP	51	96	1	E	0	M1
TTP	51	192	2	E	0	M1
TTP	51	192	6	E	0	M1
TTP	51	288	3	E	0	M1
HLD	52	0	4	144
HLD	52	0	5	384
TAP	52	240	6
TAP	52	288	6
HLD	53	0	7	96
TTP	53	96	0	B	0	M1
TTP	53	96	7	B	0	M1
TTP	53	192	0	C	0	M1
TTP	53	288	3	B	0	M1
TTP	53	288	3	E	0	M1
TTP	53	288	4	B	0	M1
TTP	53	288	5	E	0	M1
XTP	54	0	0
XTP	54	0	1
XTP	54	48	0
XTP	54	48	1
TTP	54	144	0	B	0	M1
TTP	54	144	1	E	0	M1
TTP	54	144	7	B	0	M1
TTP	54	144	7	E	0	M1
TTP	54	240	3	E	0	M1
TTP	54	240	3	B	0	M1
TTP	54	240	4	B	0	M1
TTP	54	240	5	E	0	M1
THO	54	336	0	240	C	0	M1
TTP	54	336	2	E	0	M1
TTP	54	336	6	E	0	M1
XTP	56	0	6
XTP	56	0	7
XTP	56	48	6
XTP	56	48	7
TTP	56	144	1	E	0	M1
TTP	56	144	1	B	0	M1
TTP	56	144	2	B	0	M1
TTP	56	144	3	E	0	M1
TTP	56	240	5	E	0	M1
TTP	56	240	5	B	0	M1
TTP	56	240	6	B	0	M1
TTP	56	240	7	E	0	M1
TTP	56	336	0	E	0	M1
THO	56	336	0	240	C	1	M1
TTP	56	336	4	E	0	M1
TAP	58	0	7
TAP	58	48	7
TAP	58	96	0
TAP	58	144	0
TAP	58	192	5
BRK	58	288	3
BRK	58	288	7
STR	59	0	1
SCL	59	0	1	96	192	5
TAP	59	0	6
TAP	59	96	4
TAP	59	144	4
STR	59	288	1
SCL	59	288	1	96	192	5
TAP	60	0	3
TAP	60	48	3
HLD	60	192	1	96
TAP	60	288	0
TAP	61	0	1
STR	61	0	6
SCR	61	0	6	96	192	2
TAP	61	96	3
TAP	61	144	3
STR	61	288	6
SCR	61	288	6	96	192	2
TAP	62	0	4
TAP	62	48	4
HLD	62	192	6	96
TAP	62	288	7
HLD	63	0	0	192
HLD	63	0	5	192
TAP	63	288	3
TAP	63	288	4
TAP	64	0	4
TAP	64	0	6
TAP	64	96	3
TAP	64	96	4
TAP	64	192	1
TAP	64	192	3
TAP	64	288	3
TAP	64	288	4
XTP	65	0	5
XTP	65	0	6
TAP	65	96	3
TAP	65	96	4
TAP	65	192	1
TAP	65	192	2
TAP	65	288	0
TAP	65	288	7
HLD	66	0	5	48
HLD	66	48	4	48
HLD	66	96	3	48
HLD	66	144	2	48
XTP	66	192	1
BRK	66	288	0
BRK	66	288	7
STR	67	0	1
SCR	67	0	1	96	192	5
TAP	67	0	6
TAP	67	96	0
TAP	67	144	0
STR	67	288	1
SCR	67	288	1	96	192	5
TAP	68	0	0
TAP	68	48	0
HLD	68	192	1	96
TAP	68	288	0
TAP	69	0	2
STR	69	0	6
SCL	69	0	6	96	192	2
TAP	69	96	7
TAP	69	144	7
STR	69	288	6
SCL	69	288	6	96	192	2
TAP	70	0	7
TAP	70	48	7
HLD	70	192	6	96
TAP	70	288	7
THO	71	0	0	576	C	1	M1
TTP	71	0	2	B	0	M1
TTP	71	0	5	B	0	M1
TTP	71	192	7	E	0	M1
TTP	72	0	1	E	0	M1
TTP	72	192	0	E	0	M1
TAP	73	0	7
TAP	73	48	7
TAP	73	96	0
TAP	73	144	0
TAP	73	192	5
TAP	73	240	5
TAP	73	288	2
TAP	73	336	2
TAP	74	0	1
TAP	74	0	6
TAP	74	48	1
TAP	74	48	6
TAP	74	96	1
TAP	74	96	6
TAP	74	144	1
TAP	74	144	6
TAP	74	192	0
TAP	74	216	7
TAP	74	240	0
TAP	74	264	7
STR	74	288	0
SCR	74	288	0	96	288	4
TAP	74	312	7
TAP	74	336	0
TAP	74	360	7
XTP	76	0	3
XTP	76	0	5
TAP	76	48	4
XTP	76	96	1
XTP	76	96	3
TAP	76	144	2
XTP	76	192	3
XTP	76	192	6
TAP	76	240	5
XST	76	288	0
SXL	76	288	0	96	432	3
XST	76	288	4
SXL	76	288	4	96	432	7
TAP	78	192	1
TAP	78	192	3
TAP	78	264	0
TAP	78	264	7
TAP	78	336	4
TAP	78	336	6
STR	79	0	4
SI_	79	0	4	96	48	1
STR	79	0	6
SI_	79	0	6	96	48	3
TAP	79	192	0
TAP	79	240	7
TAP	79	288	6
TAP	79	336	5
HLD	80	0	1	96
TAP	80	0	4
TAP	80	96	2
TAP	80	192	3
HLD	80	192	6	96
TAP	80	288	5
STR	81	0	1
SI_	81	0	1	96	48	4
TAP	81	0	7
TAP	81	48	1
TAP	81	48	7
TAP	81	192	0
STR	81	192	6
SI_	81	192	6	96	48	3
TAP	81	240	0
TAP	81	240	6
TAP	82	0	0
STR	82	0	1
SI_	82	0	1	96	48	5
TAP	82	48	0
TAP	82	48	1
STR	82	192	6
SI_	82	192	6	96	48	2
TAP	82	192	7
TAP	82	240	6
TAP	82	240	7
HLD	83	0	0	48
HLD	83	0	1	48
HLD	83	96	2	48
HLD	83	96	3	48
HLD	83	192	4	48
HLD	83	192	5	48
HLD	83	288	6	48
HLD	83	288	7	48
TAP	84	0	2
TAP	84	48	2
TAP	84	96	7
TAP	84	144	7
TAP	84	192	1
TAP	84	216	0
TAP	84	240	1
TAP	84	264	0
BRK	84	288	1
TAP	85	0	3
TAP	85	0	4
TTP	85	96	0	C	1	M1
TTP	85	96	2	B	0	M1
TTP	85	96	5	B	0	M1
XTP	85	192	0
XTP	85	192	7
TAP	85	288	1
STR	85	336	1
SI_	85	336	1	96	48	4
TAP	86	48	6
HLD	86	96	6	96
TAP	86	192	4
TAP	86	264	0
TAP	86	264	7
TAP	86	336	1
TAP	86	336	3
STR	87	0	1
SI_	87	0	1	96	48	4
STR	87	0	3
SI_	87	0	3	96	48	6
TAP	87	192	7
TAP	87	240	0
TAP	87	288	1
TAP	87	336	2
TAP	88	0	3
HLD	88	0	6	96
TAP	88	96	5
HLD	88	192	1	96
TAP	88	192	4
TAP	88	288	2
XTP	89	0	3
XTP	89	0	6
TAP	89	96	5
TAP	89	128	4
TAP	89	160	5
STR	89	192	4
SI_	89	192	4	96	48	0
BRK	89	288	7
XTP	90	0	1
XTP	90	0	4
TAP	90	96	2
TAP	90	128	3
TAP	90	160	2
XHO	90	192	3	48
XHO	90	264	2	48
XHO	90	264	4	48
XTP	90	336	1
XTP	90	336	5
XTP	91	0	0
XTP	91	0	6
TAP	91	96	0
TAP	91	96	1
TAP	91	144	2
TAP	91	144	7
TAP	91	240	6
TAP	91	240	7
TAP	91	288	0
TAP	91	288	5
XHO	92	0	1	72
HLD	92	72	2	72
TAP	92	144	3
XHO	92	192	7	72
HLD	92	264	6	72
TAP	92	336	5
BST	93	0	0
SF_	93	0	0	96	432	4
BRK	93	0	4
TAP	94	288	0
TAP	94	288	7
TAP	95	0	1
TAP	95	0	4
TAP	95	96	5
TAP	95	144	4
TAP	95	192	3
TAP	95	192	6
TAP	95	288	2
TAP	95	336	3
TAP	96	0	1
TAP	96	0	4
TAP	96	96	7
TAP	96	144	0
XTP	96	192	1
XTP	96	192	6
XTP	96	264	2
XTP	96	264	5
XTP	96	336	3
XHO	96	336	4	144
TTP	97	96	0	C	1	M1
TAP	97	288	0
TAP	97	288	7
TAP	98	0	3
TAP	98	48	3
TAP	98	96	5
TAP	98	144	5
TAP	98	192	2
TAP	98	240	2
TAP	98	288	4
STR	99	0	1
SI_	99	0	1	96	48	5
TAP	99	96	0
STR	99	192	7
SI_	99	192	7	96	48	3
TAP	99	288	1
HLD	100	0	2	96
TAP	100	96	3
XTP	100	192	0
XTP	100	192	1
XTP	100	264	3
XTP	100	264	4
XTP	100	336	6
XTP	100	336	7
XTP	101	0	5
TAP	101	24	4
TAP	101	48	5
TAP	101	72	4
TAP	101	96	5
XTP	101	144	2
TAP	101	168	3
TAP	101	192	2
TAP	101	216	3
TAP	101	240	2
BST	101	288	1
SI_	101	288	1	96	48	5
BRK	101	288	6
STR	102	0	7
SI_	102	0	7	96	48	3
TAP	102	48	7
STR	102	96	2
SI_	102	96	2	96	48	0
TAP	102	144	2
TAP	102	192	6
BRK	102	288	5
BRK	102	288	7
XTP	103	0	2
TAP	103	24	3
TAP	103	48	2
TAP	103	72	3
TAP	103	96	2
XTP	103	144	5
TAP	103	168	4
TAP	103	192	5
TAP	103	216	4
TAP	103	240	5
BRK	103	288	1
BST	103	288	6
SI_	103	288	6	96	48	2
STR	104	0	0
SI_	104	0	0	96	48	4
TAP	104	48	0
STR	104	96	5
SI_	104	96	5	96	48	7
TAP	104	144	5
TAP	104	192	1
BRK	104	288	0
BRK	104	288	2
XTP	105	0	0
XTP	105	0	7
TAP	105	72	1
TAP	105	72	3
TAP	105	144	4
TAP	105	144	6
TAP	105	216	1
TAP	105	216	4
TAP	105	288	3
TAP	105	288	6
TAP	105	360	0
TAP	105	360	4
TAP	106	48	3
TAP	106	48	7
TAP	106	120	0
TAP	106	120	5
TAP	106	192	2
TAP	106	192	7
TAP	106	264	3
TAP	106	264	4
TAP	106	336	0
TAP	106	336	7
XTP	107	0	5
TAP	107	24	4
TAP	107	48	5
TAP	107	72	4
TAP	107	96	5
XTP	107	144	2
TAP	107	168	3
TAP	107	192	2
TAP	107	216	3
TAP	107	240	2
XTP	107	288	7
TAP	107	312	0
TAP	107	336	7
TAP	107	360	0
TAP	108	0	7
XTP	108	48	3
TAP	108	72	4
TAP	108	96	3
TAP	108	120	4
TAP	108	144	3
TTP	108	192	4	E	0	M1
TTP	108	216	5	E	0	M1
TTP	108	240	6	E	0	M1
TTP	108	264	7	E	0	M1
TTP	108	288	0	E	0	M1
TTP	108	312	1	E	0	M1
TTP	108	336	2	E	0	M1
TTP	108	360	3	E	0	M1
THO	109	96	0	1248	C	0	M1
TTP	109	96	1	B	0	M1
TTP	109	96	2	B	0	M1
TTP	109	96	5	B	0	M1
TTP	109	96	6	B	0	M1
TAP	113	96	4
TAP	113	192	3
TAP	113	240	3
TAP	113	288	4
TAP	113	336	4
TAP	114	48	3
TAP	114	144	3
TAP	114	240	4
TAP	114	288	3
TAP	114	336	4
TAP	115	96	3
TAP	115	192	4
TAP	115	240	4
TAP	115	288	3
TAP	115	336	3
TAP	116	48	4
TAP	116	144	4
TAP	116	240	3
TAP	116	288	4
BRK	116	336	2

T_REC_TAP	374
T_REC_BRK	19
T_REC_XTP	72
T_REC_HLD	58
T_REC_XHO	8
T_REC_STR	45
T_REC_BST	5
T_REC_XST	5
T_REC_TTP	65
T_REC_THO	4
T_REC_SLD	55
T_REC_ALL	710
T_NUM_TAP	561
T_NUM_BRK	24
T_NUM_HLD	70
T_NUM_SLD	55
T_NUM_ALL	710
T_JUDGE_TAP	585
T_JUDGE_HLD	241
T_JUDGE_SLD	55
T_JUDGE_ALL	881
TTM_EACHPAIRS	147
TTM_SCR_TAP	280500
TTM_SCR_BRK	62400
TTM_SCR_HLD	70000
TTM_SCR_SLD	82500
TTM_SCR_ALL	495400
TTM_SCR_S	478250
TTM_SCR_SS	493000
TTM_RAT_ACV	10048

