VERSION	0.00.00	1.03.00
FES_MODE	0
BPM_DEF	212.000	212.000	212.000	212.000
MET_DEF	4	4
RESOLUTION	384
CLK_DEF	384
COMPATIBLE_CODE	MA2

BPM	0	0	212.000
MET	0	0	4	4

HLD	2	0	5	384
HLD	3	0	4	384
HLD	4	0	3	384
HLD	5	0	2	384
HLD	6	0	3	384
HLD	7	0	4	384
HLD	8	0	5	384
THO	9	0	0	816	C	0	L1
XTP	12	0	2
XTP	12	0	3
XTP	12	144	2
XTP	12	144	3
XHO	12	288	2	192
XHO	12	288	3	192
XTP	13	192	2
XTP	13	192	3
XTP	14	0	4
XTP	14	0	5
XTP	14	144	4
XTP	14	144	5
XHO	14	288	4	192
XHO	14	288	5	192
XTP	15	192	4
XTP	15	192	5
TAP	16	0	2
TAP	16	96	3
TAP	16	192	2
TAP	16	192	4
TAP	17	0	5
TAP	17	96	4
TAP	17	192	3
TAP	17	192	5
XTP	18	0	2
XTP	18	0	4
XTP	18	192	3
XTP	18	192	5
XST	19	0	4
SI_	19	0	4	96	192	7
XHO	20	0	0	384
XTP	21	0	7
XTP	21	96	0
XTP	21	96	7
BRK	21	192	1
BRK	21	192	6
TAP	22	0	2
TAP	22	96	2
TAP	22	192	2
TAP	22	192	3
TAP	23	0	5
TAP	23	96	5
TAP	23	192	4
TAP	23	192	5
TAP	24	0	3
TAP	24	96	3
TAP	24	192	2
TAP	24	288	2
TAP	25	0	1
TAP	25	0	3
TAP	25	96	1
TAP	25	96	3
TAP	25	192	1
TAP	25	192	3
XTP	26	0	2
XTP	26	48	2
XTP	26	192	4
XTP	26	240	4
XTP	27	0	3
XTP	27	48	3
XTP	27	192	5
XTP	27	240	5
TAP	28	0	4
TAP	28	0	6
TAP	28	96	4
TAP	28	96	6
TAP	28	192	5
TAP	28	288	5
TAP	29	0	3
TAP	29	96	3
TAP	29	192	2
TAP	29	192	4
TAP	30	0	0
TAP	30	96	0
TAP	30	192	1
TAP	30	288	1
TAP	31	0	2
TAP	31	96	2
TAP	31	192	2
TAP	31	192	3
TAP	32	0	4
TAP	32	96	4
TAP	32	192	5
TAP	32	288	5
TAP	33	0	6
TAP	33	96	6
TAP	33	192	6
TAP	33	192	7
HLD	34	0	4	192
HLD	34	0	5	192
HLD	35	0	2	192
HLD	35	0	3	192
STR	36	0	3
SI_	36	0	3	96	288	7
STR	36	0	4
SI_	36	0	4	96	288	0
XTP	37	192	1
XTP	37	192	6
STR	38	0	2
SLL	38	0	2	96	480	3
STR	38	0	5
SLR	38	0	5	96	480	4
TTP	40	0	4	E	0	L1
TTP	41	0	3	B	0	L1
TTP	42	0	2	B	0	L1
TTP	43	0	2	E	0	L1
TTP	44	0	0	C	0	L1
TTP	45	0	6	E	0	L1
TTP	46	0	7	E	0	L1
TTP	47	0	0	E	0	L1
TTP	47	0	1	E	0	L1
TTP	48	0	4	B	0	L1
TTP	48	0	5	E	0	L1
TTP	48	192	5	B	0	L1
TTP	49	0	6	B	0	L1
TTP	50	0	3	B	0	L1
TTP	50	0	3	E	0	L1
TTP	50	192	2	B	0	L1
TTP	51	0	1	B	0	L1
TTP	52	0	3	B	0	L1
TTP	52	0	4	B	0	L1
TTP	52	192	2	B	0	L1
TTP	52	192	5	B	0	L1
TTP	53	0	1	B	0	L1
TTP	53	0	6	B	0	L1
THO	54	0	0	336	C	0	L1
THO	56	0	0	336	C	0	L1
TTP	58	0	0	C	1	L1
TTP	58	0	1	B	0	L1
TTP	58	0	6	B	0	L1
XST	59	0	7
SI_	59	0	7	96	288	3
TAP	60	192	2
STR	61	0	1
SI_	61	0	1	96	288	5
TAP	62	192	6
XST	63	0	7
SI_	63	0	7	96	288	3
TAP	64	192	2
TAP	64	192	4
TAP	65	0	5
TAP	65	96	5
TAP	65	192	3
TAP	65	192	4
TAP	65	288	3
TAP	65	288	4
XTP	66	0	2
XTP	66	96	2
BRK	66	192	1
BRK	66	192	3
STR	67	0	2
SI_	67	0	2	96	288	7
TAP	68	192	6
STR	69	0	5
SI_	69	0	5	96	288	1
TAP	70	192	0
STR	71	0	7
SI_	71	0	7	96	288	3
TAP	72	192	2
TAP	72	192	4
STR	73	0	3
SI_	73	0	3	96	288	0
SI_	73	0	3	96	288	6
XTP	74	192	7
HLD	75	0	1	192
HLD	75	0	6	192
XTP	76	0	2
XTP	76	0	3
XTP	76	96	2
XTP	76	96	3
XTP	76	192	4
XTP	76	192	5
XST	76	288	4
SSL	76	288	4	96	384	0
XTP	76	288	5
BRK	78	192	1
BRK	78	192	6
TAP	79	0	5
TAP	79	96	4
TAP	79	192	3
TAP	79	288	2
TAP	80	0	1
TAP	80	0	3
TAP	80	96	1
TAP	80	96	3
TAP	80	192	0
TAP	80	192	4
XTP	81	0	1
XTP	81	48	1
XTP	81	192	3
XTP	81	240	3
XTP	82	0	5
XTP	82	48	5
XTP	82	192	7
XTP	82	240	7
TAP	83	0	0
TAP	83	96	0
TAP	83	192	1
TAP	83	192	7
TAP	83	288	1
TAP	83	288	7
TAP	84	0	0
TAP	84	0	6
TAP	84	96	0
TAP	84	96	6
BRK	84	192	1
BRK	84	192	5
TAP	85	0	0
TAP	85	96	1
TAP	85	192	2
TAP	85	288	3
TAP	86	0	5
TAP	86	96	6
TAP	86	192	1
TAP	86	192	7
TAP	87	0	7
TAP	87	96	6
TAP	87	192	5
TAP	87	288	4
TAP	88	0	2
TAP	88	96	1
TAP	88	192	0
TAP	88	192	6
HLD	89	0	4	96
HLD	89	0	6	96
TAP	89	192	4
TAP	89	192	6
HLD	90	0	1	96
HLD	90	0	3	96
TAP	90	192	1
TAP	90	192	3
TAP	91	0	0
TAP	91	0	1
TAP	91	96	0
TAP	91	96	1
TAP	91	192	2
TAP	91	192	3
TAP	91	288	2
TAP	91	288	3
TAP	92	0	4
TAP	92	0	5
TAP	92	96	4
TAP	92	96	5
TAP	92	192	6
TAP	92	192	7
TAP	92	288	6
TAP	92	288	7
XST	93	0	0
SI_	93	0	0	96	288	4
TAP	94	192	5
STR	94	288	5
SI_	94	288	5	96	384	1
TAP	96	192	0
TAP	96	192	7
STR	96	288	0
SCR	96	288	0	96	336	3
STR	96	288	7
SCL	96	288	7	96	336	4
XTP	98	192	2
XTP	98	192	5
STR	98	288	2
SLL	98	288	2	96	432	4
STR	98	288	5
SLR	98	288	5	96	432	3
XTP	100	192	2
XTP	100	192	5
XTP	101	0	1
TAP	101	48	1
TAP	101	96	1
TAP	101	192	2
TAP	101	192	4
TAP	101	288	2
TAP	101	288	4
TAP	102	0	5
TAP	102	48	5
TAP	102	96	5
XTP	102	192	4
XTP	102	192	6
TAP	103	0	6
TAP	103	48	6
TAP	103	96	6
TAP	103	192	1
TAP	103	192	7
TAP	103	288	1
TAP	103	288	7
TAP	104	0	2
TAP	104	48	2
TAP	104	96	2
BRK	104	192	1
BRK	104	192	3
XST	105	0	3
SCL	105	0	3	96	480	4
XTP	105	0	4
XTP	107	0	3
XTP	107	48	3
XTP	107	144	2
XTP	107	144	4
XTP	107	192	2
XTP	107	192	4
XTP	107	288	3
XTP	107	288	5
XTP	107	336	3
XTP	107	336	5
XTP	108	48	1
XTP	108	48	6
XTP	108	96	1
XTP	108	96	6
XTP	108	192	0
XTP	108	192	7
XTP	108	240	0
XTP	108	240	7
XTP	108	288	0
XTP	108	288	7
TTP	109	96	0	C	1	L1
HLD	113	0	2	768
HLD	113	0	5	768
THO	116	0	0	336	C	0	L1

T_REC_TAP	144
T_REC_BRK	10
T_REC_XTP	75
T_REC_HLD	19
T_REC_XHO	5
T_REC_STR	14
T_REC_BST	0
T_REC_XST	6
T_REC_TTP	27
T_REC_THO	4
T_REC_SLD	21
T_REC_ALL	325
T_NUM_TAP	266
T_NUM_BRK	10
T_NUM_HLD	28
T_NUM_SLD	21
T_NUM_ALL	325
T_JUDGE_TAP	276
T_JUDGE_HLD	182
T_JUDGE_SLD	21
T_JUDGE_ALL	479
TTM_EACHPAIRS	84
TTM_SCR_TAP	133000
TTM_SCR_BRK	26000
TTM_SCR_HLD	28000
TTM_SCR_SLD	31500
TTM_SCR_ALL	218500
TTM_SCR_S	211000
TTM_SCR_SS	217500
TTM_RAT_ACV	10045

