VERSION	0.00.00	1.03.00
FES_MODE	0
BPM_DEF	212.000	212.000	212.000	212.000
MET_DEF	4	4
RESOLUTION	384
CLK_DEF	384
COMPATIBLE_CODE	MA2

BPM	0	0	212.000
MET	0	0	4	4

TAP	2	0	3
TAP	3	0	2
TAP	4	0	1
TAP	5	0	0
TAP	6	0	7
TAP	7	0	6
TAP	8	0	5
TAP	9	0	4
HLD	12	0	2	336
HLD	12	0	3	336
HLD	14	0	4	336
HLD	14	0	5	336
TTP	16	0	3	B	0	L1
TTP	16	0	4	B	0	L1
TTP	17	0	2	B	0	L1
TTP	17	0	5	B	0	L1
TTP	18	0	1	B	0	L1
TTP	18	0	6	B	0	L1
TTP	19	0	0	B	0	L1
TTP	19	0	7	B	0	L1
THO	20	0	0	384	C	1	L1
XTP	22	0	0
TAP	22	96	0
TAP	22	192	0
TAP	23	0	0
TAP	23	96	0
TAP	23	192	0
TAP	24	0	1
TAP	24	96	1
TAP	24	192	1
HLD	25	0	1	192
TAP	26	0	2
TAP	26	96	2
TAP	26	192	2
TAP	27	0	3
TAP	27	96	3
TAP	27	192	3
TAP	28	0	4
TAP	28	96	4
TAP	28	192	4
BRK	29	0	3
BRK	29	0	4
XTP	30	0	4
TAP	30	96	4
TAP	30	192	4
TAP	31	0	4
TAP	31	96	4
TAP	31	192	4
TAP	32	0	5
TAP	32	96	5
TAP	32	192	5
HLD	33	0	5	192
TAP	34	0	6
TAP	34	96	6
TAP	34	192	6
TAP	35	0	7
TAP	35	96	7
TAP	35	192	7
HLD	36	0	0	384
HLD	36	0	7	384
STR	38	0	0
SI_	38	0	0	96	288	3
STR	38	0	7
SI_	38	0	7	96	288	4
TAP	40	0	3
TAP	41	0	3
TAP	42	0	2
TAP	43	0	2
TAP	43	0	3
TAP	44	0	4
TAP	45	0	4
TAP	46	0	5
TAP	47	0	4
TAP	47	0	5
HLD	48	0	3	384
HLD	48	0	4	384
HLD	50	0	2	384
HLD	50	0	5	384
HLD	52	0	1	384
HLD	52	0	6	384
XHO	54	0	1	336
XHO	54	0	7	336
XHO	56	0	0	336
XHO	56	0	6	336
BRK	58	0	0
BRK	58	0	7
STR	59	0	0
SI_	59	0	0	96	288	4
TAP	61	0	5
TAP	61	192	5
TAP	62	0	6
TAP	62	192	6
STR	63	0	7
SI_	63	0	7	96	288	3
TAP	65	0	2
TAP	65	192	2
TAP	66	0	0
TAP	66	0	1
TTP	67	0	2	B	0	L1
TTP	68	0	3	B	0	L1
TTP	69	0	4	B	0	L1
TTP	70	0	5	B	0	L1
TTP	71	0	3	B	0	L1
TTP	71	0	4	B	0	L1
TTP	72	0	2	B	0	L1
TTP	72	0	5	B	0	L1
TTP	73	0	1	B	0	L1
TTP	73	0	6	B	0	L1
TTP	74	0	0	B	0	L1
TTP	74	0	7	B	0	L1
THO	75	0	0	384	C	1	L1
HLD	77	0	0	576
HLD	77	0	7	576
TAP	79	0	0
TAP	79	96	0
TAP	79	192	1
TAP	79	288	1
HLD	80	0	0	192
HLD	80	0	1	192
TAP	81	0	1
TAP	81	96	1
TAP	81	192	1
TAP	82	0	2
TAP	82	96	2
TAP	82	192	2
TAP	83	0	3
TAP	83	96	3
TAP	83	192	4
TAP	83	288	4
TAP	84	0	3
TAP	84	96	4
BRK	84	192	2
BRK	84	192	5
TAP	85	0	3
TAP	85	96	3
TAP	85	192	2
TAP	85	192	4
TAP	86	0	4
TAP	86	96	4
TAP	86	192	3
TAP	86	192	5
TAP	87	0	5
TAP	87	96	5
TAP	87	192	6
TAP	87	288	6
HLD	88	0	6	192
HLD	88	0	7	192
TAP	89	0	0
TAP	89	96	0
TAP	89	192	0
TAP	90	0	7
TAP	90	96	7
TAP	90	192	7
HLD	91	0	0	192
HLD	91	0	7	192
TAP	92	0	1
TAP	92	0	6
TAP	92	96	1
TAP	92	96	6
BRK	92	192	1
BRK	92	192	6
STR	93	0	0
SI_	93	0	0	96	288	4
TAP	94	192	7
STR	95	0	7
SI_	95	0	7	96	288	3
TAP	96	192	0
TAP	97	0	1
TAP	97	192	1
TAP	98	0	2
TAP	98	192	2
TAP	99	0	3
TAP	99	96	3
TAP	99	192	3
TAP	100	0	4
TAP	100	96	4
TAP	100	192	4
TAP	101	0	4
TAP	101	96	4
TAP	101	192	5
TAP	101	288	5
TAP	102	0	4
TAP	102	96	4
TAP	102	192	3
TAP	102	192	5
TAP	103	0	3
TAP	103	96	3
TAP	103	192	2
TAP	103	288	2
TAP	104	0	3
TAP	104	96	3
TAP	104	192	2
TAP	104	192	4
TAP	105	0	3
TAP	105	96	3
TAP	105	192	4
TAP	105	288	4
TAP	106	0	2
TAP	106	96	2
TAP	106	192	5
TAP	106	288	5
TAP	107	0	1
TAP	107	96	1
TAP	107	192	6
TAP	107	288	6
TAP	108	0	0
TAP	108	96	0
TAP	108	192	7
TAP	108	288	7
XHO	109	96	1	1440
XHO	109	96	6	1440

T_REC_TAP	139
T_REC_BRK	8
T_REC_XTP	2
T_REC_HLD	22
T_REC_XHO	6
T_REC_STR	6
T_REC_BST	0
T_REC_XST	0
T_REC_TTP	20
T_REC_THO	2
T_REC_SLD	6
T_REC_ALL	211
T_NUM_TAP	167
T_NUM_BRK	8
T_NUM_HLD	30
T_NUM_SLD	6
T_NUM_ALL	211
T_JUDGE_TAP	175
T_JUDGE_HLD	252
T_JUDGE_SLD	6
T_JUDGE_ALL	433
TTM_EACHPAIRS	27
TTM_SCR_TAP	83500
TTM_SCR_BRK	20800
TTM_SCR_HLD	30000
TTM_SCR_SLD	9000
TTM_SCR_ALL	143300
TTM_SCR_S	138250
TTM_SCR_SS	142500
TTM_RAT_ACV	10056

