VERSION	0.00.00	1.03.00
FES_MODE	0
BPM_DEF	130.000	130.000	130.000	130.000
MET_DEF	4	4
RESOLUTION	384
CLK_DEF	384
COMPATIBLE_CODE	MA2

BPM	0	0	130.000
MET	0	0	4	3

THO	1	192	0	288	C	0	M1
XST	1	192	7
SSR	1	192	7	96	192	3
STR	2	336	0
SSL	2	336	0	96	240	4
TAP	2	360	7
TTP	3	0	0	C	1	M1
TAP	3	336	2
TAP	3	336	3
TAP	4	0	1
TAP	4	0	3
TAP	4	48	3
TAP	4	48	4
TAP	4	96	4
TAP	4	96	6
TAP	4	144	4
TAP	4	144	5
TAP	4	192	3
TAP	4	192	4
TAP	4	240	2
TAP	4	264	2
HLD	4	288	3	48
TAP	4	336	1
TAP	4	360	4
TAP	5	0	3
TAP	5	24	3
TAP	5	24	6
TAP	5	72	5
STR	5	96	5
SI_	5	96	5	96	48	3
TAP	5	144	6
TAP	5	168	3
TAP	5	192	5
HLD	5	240	1	72
HLD	5	312	2	72
TAP	5	360	3
TAP	6	0	3
TAP	6	72	3
STR	6	72	4
SI_	6	72	4	96	48	6
TAP	6	120	6
TAP	6	144	2
TAP	6	168	4
HLD	6	216	3	72
TAP	6	288	6
TAP	6	336	5
TAP	6	360	5
TAP	7	0	4
TAP	7	24	4
TAP	7	48	6
TAP	7	120	3
TAP	7	120	4
TAP	7	168	1
HLD	7	192	1	72
TAP	7	192	3
TAP	7	264	2
TAP	7	312	5
TAP	7	336	3
HLD	7	336	5	72
TAP	8	24	4
TAP	8	96	4
TAP	8	120	3
TAP	8	144	3
TAP	8	168	5
TAP	8	192	1
TAP	8	216	1
HLD	8	240	6	144
HLD	8	312	2	152
TAP	9	8	5
HLD	9	16	4	72
HLD	9	88	3	72
TAP	9	152	5
HLD	9	160	4	56
TAP	9	216	3
TAP	9	264	4
BRK	9	288	3
TAP	9	288	4
TAP	9	336	2
TAP	9	336	5
TAP	10	0	1
TAP	10	0	6
TAP	10	48	0
STR	10	48	7
SLL	10	48	7	96	96	2
TAP	10	144	2
STR	10	192	1
SI_	10	192	1	96	48	6
TAP	10	288	6
HLD	10	336	5	96
TAP	11	48	4
STR	11	96	2
SCL	11	96	2	96	144	5
HLD	11	96	3	96
HLD	11	240	4	96
HLD	12	0	2	96
STR	12	0	3
SCL	12	0	3	96	144	5
HLD	12	144	4	96
TAP	12	288	0
TAP	12	288	7
TAP	12	336	1
TAP	12	336	6
TAP	13	0	2
TAP	13	0	5
STR	13	48	3
SLL	13	48	3	96	96	6
TAP	13	48	4
TAP	13	144	6
STR	13	192	5
SI_	13	192	5	96	48	2
TAP	13	288	2
TAP	13	312	1
HLD	13	336	0	96
TAP	14	48	4
TAP	14	72	1
TAP	14	72	5
TAP	14	96	2
HLD	14	96	6	120
TAP	14	192	3
BRK	14	240	1
BRK	14	240	5
TAP	14	336	0
TAP	15	0	1
TAP	15	0	3
TAP	15	48	2
TAP	15	48	3
TAP	15	96	3
TAP	15	96	4
TAP	15	144	4
TAP	15	144	6
TAP	15	192	6
TAP	15	192	7
TAP	15	240	0
TAP	15	240	7
XST	15	288	0
SLL	15	288	0	96	72	2
HLD	15	288	1	144
TTP	16	48	0	C	1	M1
XST	16	192	1
SLL	16	192	1	96	72	3
HLD	16	192	2	144
TTP	16	336	0	C	1	M1
XST	17	96	2
SLL	17	96	2	96	72	4
HLD	17	96	3	144
TTP	17	240	0	C	1	M1
XST	18	0	3
SLL	18	0	3	96	72	5
HLD	18	0	4	144
TTP	18	144	0	C	1	M1
XTP	18	288	3
XST	18	288	4
SI_	18	288	4	96	160	0
SLR	18	288	4	96	72	2
TTP	19	48	0	C	1	M1
XTP	19	192	4
XST	19	192	5
SI_	19	192	5	96	160	1
SLR	19	192	5	96	72	3
TTP	19	336	0	C	1	M1
XTP	20	96	5
XST	20	96	6
SI_	20	96	6	96	160	2
SLR	20	96	6	96	72	4
TTP	20	240	0	C	1	M1
XTP	21	0	6
XST	21	0	7
SI_	21	0	7	96	160	3
SLR	21	0	7	96	72	5
TTP	21	144	0	C	1	M1
XST	21	288	0
SLR	21	288	0	96	72	6
XTP	21	288	7
TAP	21	360	7
TTP	22	48	0	C	1	M1
TAP	22	48	5
TAP	22	120	5
XTP	22	192	1
XST	22	192	7
SLL	22	192	7	96	72	1
TAP	22	264	1
TTP	22	336	0	C	1	M1
TAP	22	336	2
TAP	23	24	2
XST	23	96	1
SLR	23	96	1	96	72	7
XTP	23	96	4
TTP	23	168	5	B	0	M1
TTP	23	240	0	C	1	M1
TAP	23	240	6
TAP	23	312	6
XTP	24	0	0
XST	24	0	5
SLR	24	0	5	96	72	3
TTP	24	72	1	B	0	M1
TTP	24	144	0	C	1	M1
TAP	24	144	2
TAP	24	216	2
XST	24	288	1
SLL	24	288	1	96	72	3
XTP	24	288	6
TTP	24	360	5	B	0	M1
TTP	25	48	0	C	1	M1
TAP	25	48	4
TAP	25	120	4
XTP	25	192	3
XST	25	192	7
SLR	25	192	7	96	72	5
TTP	25	264	3	B	0	M1
TTP	25	336	0	C	1	M1
TAP	25	336	2
TAP	26	24	1
HLD	26	96	0	114
XTP	26	96	7
HLD	26	168	1	108
HLD	26	240	2	102
HLD	26	312	3	96
HLD	27	0	4	90
HLD	27	72	5	84
HLD	27	144	6	78
TAP	27	216	7
HLD	27	288	0	48
TAP	27	288	7
TAP	27	336	3
TAP	27	360	1
TAP	28	0	3
TAP	28	48	3
HLD	28	48	6	48
TAP	28	96	3
TAP	28	120	5
TAP	28	144	3
TAP	28	192	2
HLD	28	192	5	48
TAP	28	240	2
TAP	28	256	3
TAP	28	272	4
TAP	28	288	5
XTP	28	336	0
XTP	28	336	7
TAP	29	0	6
TAP	29	48	5
BST	29	96	1
SI_	29	96	1	96	48	6
BRK	29	96	4
TAP	29	144	0
TAP	29	192	1
TAP	29	192	6
STR	29	240	5
SI_	29	240	5	96	48	2
TAP	29	288	4
TAP	29	336	2
TAP	29	336	5
STR	30	0	1
SI_	30	0	1	96	48	5
TAP	30	48	0
TAP	30	96	1
TAP	30	96	5
STR	30	144	6
SI_	30	144	6	96	48	2
TAP	30	192	7
TAP	30	240	2
TAP	30	240	6
TAP	30	288	0
TAP	30	336	1
TAP	31	0	2
TAP	31	0	6
TAP	31	48	4
STR	31	96	2
SLR	31	96	2	96	96	6
TAP	31	96	6
TAP	31	144	0
XTP	31	192	2
XST	31	192	6
SLR	31	192	6	96	120	2
TAP	31	240	0
TAP	31	288	0
TTP	31	336	4	B	0	M1
TTP	31	336	5	E	0	M1
TTP	32	0	6	E	0	M1
TTP	32	48	7	B	0	M1
TTP	32	48	7	E	0	M1
HLD	32	96	1	96
TAP	32	96	3
TAP	32	144	2
TAP	32	192	7
TAP	32	240	4
HLD	32	240	6	96
TAP	32	288	5
TAP	32	336	0
TAP	33	0	2
TAP	33	12	3
TAP	33	24	2
TAP	33	36	3
TAP	33	48	2
TAP	33	72	4
HLD	33	96	1	48
TAP	33	144	0
TAP	33	192	7
TAP	33	240	3
TAP	33	240	6
TAP	33	288	2
HLD	33	288	5	48
TAP	33	336	3
TAP	33	352	4
TAP	33	368	2
HLD	34	0	3	48
HLD	34	48	2	48
TAP	34	96	4
TAP	34	112	3
TAP	34	128	5
TAP	34	144	4
TAP	34	192	3
TAP	34	192	6
TAP	34	240	3
TAP	34	240	6
TAP	34	256	2
TAP	34	256	5
TAP	34	272	1
TAP	34	272	4
TAP	34	288	0
TAP	34	288	3
BRK	34	336	7
TAP	35	0	6
TAP	35	48	5
XST	35	96	1
SI_	35	96	1	96	48	4
XTP	35	96	4
TAP	35	144	0
TAP	35	192	1
TAP	35	192	4
STR	35	240	6
SI_	35	240	6	96	48	3
TAP	35	288	7
TAP	35	336	3
TAP	35	336	6
STR	36	0	2
SI_	36	0	2	96	48	6
TAP	36	48	1
TAP	36	96	2
TAP	36	96	6
STR	36	144	5
SI_	36	144	5	96	48	1
TAP	36	192	4
TAP	36	240	1
TAP	36	240	5
TAP	36	288	0
TAP	36	336	7
TAP	37	0	2
TAP	37	0	6
TAP	37	48	4
TAP	37	96	2
STR	37	96	6
SLL	37	96	6	96	96	2
TAP	37	144	0
XST	37	192	2
SLL	37	192	2	96	120	6
XTP	37	192	6
TAP	37	240	0
TAP	37	288	0
TTP	37	336	3	E	0	M1
TTP	37	336	3	B	0	M1
TTP	38	0	0	C	0	M1
TTP	38	48	0	B	0	M1
TTP	38	48	1	E	0	M1
TAP	38	96	4
HLD	38	96	6	96
TAP	38	144	5
TAP	38	192	0
HLD	38	240	1	96
TAP	38	240	3
TAP	38	288	2
TAP	38	336	7
TAP	39	0	5
TAP	39	12	4
TAP	39	24	5
TAP	39	36	4
TAP	39	48	5
TAP	39	72	3
HLD	39	96	6	48
TAP	39	144	7
TAP	39	192	0
TAP	39	192	5
TAP	39	240	1
TAP	39	240	4
STR	39	288	2
SCR	39	288	2	96	48	5
TAP	39	288	5
TAP	39	336	1
TAP	39	336	6
TAP	40	0	2
TAP	40	0	5
TAP	40	48	6
TAP	40	72	6
TAP	40	96	4
TAP	40	120	4
TAP	40	144	3
TAP	40	168	3
TAP	40	192	1
TAP	40	240	1
TAP	40	240	4
TAP	40	256	2
TAP	40	256	5
TAP	40	272	3
TAP	40	272	6
TAP	40	288	4
TAP	40	288	7
BRK	40	336	0
TAP	41	0	0
TAP	41	48	1
TAP	41	96	1
TAP	41	96	4
TTP	41	168	1	E	0	M1
TTP	41	168	2	B	0	M1
TTP	41	168	3	B	0	M1
TAP	41	216	7
TAP	41	240	7
TTP	41	288	4	E	0	M1
TTP	41	288	5	B	0	M1
TTP	41	288	6	E	0	M1
TAP	41	360	4
TAP	42	0	4
TTP	42	72	1	B	0	M1
TTP	42	72	2	E	0	M1
TTP	42	72	3	B	0	M1
TAP	42	120	7
TAP	42	144	7
TTP	42	192	4	B	0	M1
TTP	42	192	6	B	0	M1
TTP	42	192	7	E	0	M1
TAP	42	264	2
TAP	42	288	2
TAP	42	312	2
TTP	42	360	1	B	0	M1
TTP	42	360	1	E	0	M1
TTP	42	360	3	E	0	M1
TAP	43	24	5
TAP	43	48	5
TTP	43	96	5	E	0	M1
TTP	43	96	6	B	0	M1
TTP	43	96	7	E	0	M1
TAP	43	168	1
TAP	43	192	1
TAP	43	216	1
TTP	43	264	0	B	0	M1
TTP	43	264	0	E	0	M1
TTP	43	264	2	B	0	M1
TAP	43	312	4
TAP	43	336	4
TTP	44	0	3	B	0	M1
TTP	44	0	5	B	0	M1
TTP	44	0	6	E	0	M1
TAP	44	48	1
TAP	44	72	1
TAP	44	96	0
TAP	44	120	1
TTP	44	168	1	E	0	M1
TTP	44	168	2	B	0	M1
TTP	44	168	3	E	0	M1
TTP	44	168	3	B	0	M1
TAP	44	216	5
TAP	44	240	5
TTP	44	288	4	B	0	M1
TTP	44	288	5	E	0	M1
TTP	44	288	6	B	0	M1
TTP	44	288	7	E	0	M1
TAP	44	336	2
TAP	44	360	2
TAP	45	0	3
TAP	45	24	2
TTP	45	72	1	B	0	M1
TTP	45	72	1	E	0	M1
TTP	45	72	2	E	0	M1
TTP	45	72	3	B	0	M1
TAP	45	120	6
TAP	45	144	6
TTP	45	192	0	E	0	M1
TTP	45	192	5	B	0	M1
TTP	45	192	6	E	0	M1
TTP	45	192	7	B	0	M1
TAP	45	240	3
TAP	45	264	3
TAP	45	288	4
TAP	45	312	3
TTP	45	360	2	E	0	M1
TTP	45	360	2	B	0	M1
TTP	45	360	4	B	0	M1
TTP	45	360	5	E	0	M1
TAP	46	24	0
TAP	46	24	1
TAP	46	48	0
TAP	46	48	1
TTP	46	96	3	B	0	M1
TTP	46	96	3	E	0	M1
TTP	46	96	6	B	0	M1
TTP	46	96	7	E	0	M1
TAP	46	144	5
TAP	46	168	5
TAP	46	192	4
TAP	46	216	6
TTP	46	264	0	B	0	M1
TTP	46	264	1	E	0	M1
TTP	46	264	5	E	0	M1
TTP	46	264	5	B	0	M1
TAP	46	312	2
TAP	46	312	3
XTP	46	336	2
XTP	46	336	3
TAP	47	0	3
TAP	47	48	4
TAP	47	96	5
STR	47	120	5
SI_	47	120	5	96	48	2
TAP	47	168	3
TAP	47	168	4
TAP	47	216	1
TAP	47	240	1
TAP	47	288	3
TAP	47	336	2
TAP	47	336	7
TAP	48	0	1
STR	48	24	1
SI_	48	24	1	96	48	4
TAP	48	72	2
TAP	48	72	3
TAP	48	120	5
TAP	48	144	5
TAP	48	192	3
TAP	48	240	1
TAP	48	240	6
TAP	48	288	3
STR	48	312	3
SV_	48	312	3	96	48	0
TAP	48	360	1
TAP	48	360	2
TAP	49	24	5
TAP	49	48	5
TTP	49	96	7	E	0	M1
TTP	49	96	7	B	0	M1
TAP	49	144	1
TAP	49	144	6
TAP	49	192	4
STR	49	216	4
SV_	49	216	4	96	48	7
TAP	49	264	5
TAP	49	264	6
TAP	49	312	2
TAP	49	336	2
TTP	50	0	0	B	0	M1
TTP	50	0	1	E	0	M1
TAP	50	48	1
TAP	50	48	4
TAP	50	96	2
STR	50	120	3
SI_	50	120	3	96	48	7
TTP	50	168	0	B	0	M1
TTP	50	168	1	E	0	M1
TTP	50	168	6	E	0	M1
TTP	50	168	6	B	0	M1
TAP	50	216	3
TAP	50	240	4
TAP	50	288	4
TAP	50	336	0
TAP	50	336	6
TAP	51	0	5
STR	51	24	4
SI_	51	24	4	96	48	0
TTP	51	72	1	B	0	M1
TTP	51	72	2	E	0	M1
TTP	51	72	7	B	0	M1
TTP	51	72	7	E	0	M1
TAP	51	120	4
TAP	51	144	3
TAP	51	192	3
TAP	51	240	2
TAP	51	240	6
TAP	51	288	1
STR	51	312	0
SI_	51	312	0	96	48	4
TTP	51	360	2	B	0	M1
TTP	51	360	3	B	0	M1
TTP	51	360	5	B	0	M1
TTP	51	360	6	B	0	M1
TAP	52	24	0
TAP	52	48	7
TAP	52	96	7
TAP	52	144	3
TAP	52	144	5
TAP	52	192	6
TAP	52	216	7
TTP	52	264	2	B	0	M1
TTP	52	264	3	E	0	M1
TTP	52	264	4	E	0	M1
TTP	52	264	5	B	0	M1
TTP	52	264	5	E	0	M1
TAP	52	312	0
TAP	52	312	1
XTP	52	336	0
XTP	52	336	1
TAP	53	0	7
TAP	53	48	6
STR	53	96	4
SCL	53	96	4	96	144	1
TAP	53	96	5
TAP	53	192	1
STR	53	240	1
SCL	53	240	1	96	144	6
TAP	53	336	6
STR	54	0	6
SCL	54	0	6	96	144	3
TAP	54	96	3
STR	54	144	3
SCL	54	144	3	96	144	0
TAP	54	240	7
STR	54	288	0
SCL	54	288	0	96	144	5
TAP	55	0	4
STR	55	48	5
SCL	55	48	5	96	240	7
TAP	55	144	2
HLD	55	192	1	240
TAP	56	48	2
TAP	56	96	2
STR	56	96	3
SCR	56	96	3	96	144	6
TAP	56	192	7
STR	56	240	6
SCR	56	240	6	96	144	1
TAP	56	336	2
STR	57	0	1
SCR	57	0	1	96	144	4
TAP	57	96	5
STR	57	144	4
SCR	57	144	4	96	144	7
TAP	57	240	0
STR	57	288	7
SCR	57	288	7	96	144	2
TAP	58	0	3
STR	58	48	2
SCR	58	48	2	96	240	7
TAP	58	144	7
STR	58	192	0
SCR	58	192	0	96	96	3
TAP	59	96	2
TAP	59	96	6
TAP	59	144	2
TAP	59	168	6
TAP	59	192	2
XTP	59	240	2
HLD	59	240	4	96
XTP	59	264	3
XTP	59	288	2
XTP	59	312	3
XTP	59	336	2
TAP	60	0	1
TAP	60	0	5
TAP	60	48	5
HLD	60	72	1	72
TAP	60	96	5
BRK	60	144	5
TAP	60	156	4
TAP	60	168	3
TAP	60	192	1
TAP	60	216	0
TAP	60	240	1
TAP	60	288	1
STR	60	288	6
SCL	60	288	6	96	48	3
TAP	60	336	7
TAP	60	360	2
TAP	61	0	3
TAP	61	0	6
BRK	61	48	0
STR	61	96	1
SCR	61	96	1	96	48	4
STR	61	96	4
SXL	61	96	4	96	192	1
TAP	61	144	0
TAP	61	168	5
TAP	61	192	1
TAP	61	192	4
BRK	61	336	0
TAP	62	48	0
TAP	62	48	7
TAP	62	96	2
TAP	62	120	2
TAP	62	144	3
TAP	62	168	1
TAP	62	192	7
TAP	62	216	7
BRK	62	240	6
TAP	62	264	6
TAP	62	288	5
TAP	62	312	4
TAP	62	336	6
TAP	62	360	6
TAP	63	0	1
TAP	63	24	1
TAP	63	48	2
TAP	63	72	3
TAP	63	96	1
TAP	63	120	1
BRK	63	144	4
TAP	63	168	4
TAP	63	192	5
TAP	63	216	6
TAP	63	240	2
TAP	63	264	2
TAP	63	288	0
TAP	63	312	0
TAP	63	336	1
TAP	63	360	2
TAP	64	0	3
TAP	64	24	3
BRK	64	48	6
TAP	64	72	6
TAP	64	96	5
TAP	64	120	4
TAP	64	144	7
TAP	64	168	7
TAP	64	192	1
TAP	64	216	1
TAP	64	240	3
TAP	64	264	2
TAP	64	288	2
TAP	64	312	3
BRK	64	336	1
BRK	64	336	3
TAP	65	96	3
HLD	65	96	5	144
TAP	65	144	4
TAP	65	168	4
HLD	65	192	4	192
TAP	65	288	2
TAP	65	312	2
HLD	65	336	2	192
TAP	66	48	6
TAP	66	72	6
HLD	66	96	6	192
TAP	66	192	0
TAP	66	216	0
HLD	66	240	0	48
TAP	66	336	2
TAP	66	360	2
TAP	67	0	3
TAP	67	48	1
TAP	67	48	3
TAP	67	96	5
TAP	67	120	5
TAP	67	144	4
TAP	67	192	4
TAP	67	192	6
TAP	67	240	4
TAP	67	240	6
TAP	67	256	3
TAP	67	256	5
TAP	67	272	2
TAP	67	272	4
TAP	67	288	1
TAP	67	288	3
BRK	67	336	7
TAP	68	0	6
TAP	68	48	5
BST	68	96	1
SI_	68	96	1	96	48	6
BRK	68	96	4
TAP	68	144	0
TAP	68	144	7
TAP	68	192	1
TAP	68	192	6
STR	68	240	5
SI_	68	240	5	96	48	2
TAP	68	288	3
TAP	68	288	4
TAP	68	336	2
TAP	68	336	5
STR	69	0	1
SI_	69	0	1	96	48	5
TAP	69	48	0
TAP	69	48	4
TAP	69	96	1
TAP	69	96	5
STR	69	144	6
SI_	69	144	6	96	48	2
TAP	69	192	3
TAP	69	192	7
TAP	69	240	2
TAP	69	240	6
TAP	69	288	0
TAP	69	336	1
TAP	69	336	5
TAP	70	0	2
TAP	70	0	6
TAP	70	48	4
TAP	70	96	2
STR	70	96	6
SLR	70	96	6	96	96	2
TAP	70	144	0
XST	70	192	2
SLR	70	192	2	96	120	6
XTP	70	192	6
TAP	70	240	4
TAP	70	288	4
TTP	70	336	0	B	0	M1
TTP	70	336	1	E	0	M1
TTP	71	0	0	C	0	M1
TTP	71	48	3	E	0	M1
TTP	71	48	3	B	0	M1
TAP	71	96	4
HLD	71	96	6	96
TAP	71	144	5
TAP	71	192	0
HLD	71	240	1	96
TAP	71	240	7
TAP	71	288	2
TAP	71	336	3
TAP	72	0	6
TAP	72	12	7
TAP	72	24	6
TAP	72	36	7
TAP	72	48	6
TAP	72	72	0
HLD	72	96	5	48
TAP	72	144	4
TAP	72	192	3
TAP	72	240	2
TAP	72	240	7
HLD	72	288	1	48
TAP	72	288	6
TAP	72	336	3
TAP	72	352	2
TAP	72	368	4
HLD	73	0	3	48
HLD	73	48	6	48
TAP	73	96	4
TAP	73	112	5
TAP	73	128	2
HLD	73	144	3	48
TAP	73	192	1
TAP	73	240	1
TAP	73	240	3
TAP	73	256	2
TAP	73	256	4
TAP	73	272	3
TAP	73	272	5
TAP	73	288	4
TAP	73	288	6
BRK	73	336	0
TAP	74	0	1
TAP	74	48	2
XTP	74	96	3
XST	74	96	6
SI_	74	96	6	96	48	3
TAP	74	144	4
TAP	74	144	7
TAP	74	192	3
TAP	74	192	6
STR	74	240	1
SI_	74	240	1	96	48	4
TAP	74	288	0
TAP	74	288	2
TAP	74	336	1
TAP	74	336	4
STR	75	0	6
SI_	75	0	6	96	48	2
TAP	75	48	5
TAP	75	48	7
TAP	75	96	2
TAP	75	96	6
STR	75	144	1
SI_	75	144	1	96	48	5
TAP	75	192	0
TAP	75	192	3
TAP	75	240	1
TAP	75	240	5
TAP	75	288	7
TAP	75	336	2
TAP	75	336	6
TAP	76	0	1
TAP	76	0	5
TAP	76	48	3
STR	76	96	1
SLL	76	96	1	96	96	5
TAP	76	96	5
TAP	76	144	7
XTP	76	192	1
XST	76	192	5
SLL	76	192	5	96	120	1
TAP	76	240	3
TAP	76	288	3
TTP	76	336	7	B	0	M1
TTP	76	336	7	E	0	M1
TTP	77	0	0	C	0	M1
TTP	77	48	4	B	0	M1
TTP	77	48	5	E	0	M1
HLD	77	96	1	96
TAP	77	96	3
TAP	77	144	0
TAP	77	192	7
TAP	77	240	0
HLD	77	240	6	96
TAP	77	288	5
TAP	77	336	3
TAP	78	0	1
TAP	78	12	0
TAP	78	24	1
TAP	78	36	0
TAP	78	48	1
TAP	78	72	7
HLD	78	96	2	48
TAP	78	144	3
TAP	78	192	4
TAP	78	240	0
TAP	78	240	5
HLD	78	288	6	48
TAP	78	288	7
TAP	78	336	4
TAP	78	352	5
TAP	78	368	2
HLD	79	0	3	48
TAP	79	48	0
TAP	79	72	0
TAP	79	96	2
TAP	79	120	2
TAP	79	144	4
TAP	79	168	4
HLD	79	192	6	48
STR	79	240	4
SCR	79	240	4	96	96	3
TAP	79	256	5
TAP	79	272	2
HLD	79	288	3	48
TTP	79	336	5	E	0	M1
TTP	79	352	6	E	0	M1
TTP	79	368	7	E	0	M1
TTP	80	0	0	E	0	M1
TTP	80	16	1	E	0	M1
TTP	80	32	2	E	0	M1
TTP	80	48	3	E	0	M1
THO	80	96	0	576	C	0	M1
STR	80	96	7
SUR	80	96	7	96	336	0
TTP	81	288	0	E	0	M1
TTP	81	288	0	B	0	M1
TTP	81	288	3	B	0	M1
TTP	81	288	4	E	0	M1
TTP	81	288	4	B	0	M1
TTP	81	288	7	B	0	M1

T_REC_TAP	560
T_REC_BRK	17
T_REC_XTP	28
T_REC_HLD	63
T_REC_XHO	0
T_REC_STR	51
T_REC_BST	2
T_REC_XST	21
T_REC_TTP	125
T_REC_THO	2
T_REC_SLD	78
T_REC_ALL	947
T_NUM_TAP	785
T_NUM_BRK	19
T_NUM_HLD	65
T_NUM_SLD	78
T_NUM_ALL	947
T_JUDGE_TAP	804
T_JUDGE_HLD	145
T_JUDGE_SLD	78
T_JUDGE_ALL	1027
TTM_EACHPAIRS	159
TTM_SCR_TAP	392500
TTM_SCR_BRK	49400
TTM_SCR_HLD	65000
TTM_SCR_SLD	117000
TTM_SCR_ALL	623900
TTM_SCR_S	603350
TTM_SCR_SS	622000
TTM_RAT_ACV	10030

