VERSION	0.00.00	1.03.00
FES_MODE	0
BPM_DEF	130.000	130.000	130.000	130.000
MET_DEF	4	4
RESOLUTION	384
CLK_DEF	384
COMPATIBLE_CODE	MA2

BPM	0	0	130.000
MET	0	0	4	3

HLD	1	192	2	960
BST	1	192	5
SXL	1	192	5	96	384	3
TAP	2	336	3
TAP	2	360	4
BST	3	0	5
SI_	3	0	5	96	144	1
TAP	3	336	0
TAP	4	0	1
HLD	4	48	2	96
TAP	4	96	3
TAP	4	144	4
HLD	4	192	2	96
BRK	4	192	5
HLD	4	264	4	120
HLD	4	336	1	96
HLD	5	24	3	120
HLD	5	96	0	96
HLD	5	168	2	120
HLD	5	240	7	96
HLD	5	312	2	120
HLD	6	0	0	96
HLD	6	72	3	96
HLD	6	144	1	120
HLD	6	216	4	96
HLD	6	288	2	120
HLD	6	360	5	96
HLD	7	48	3	120
HLD	7	120	6	96
HLD	7	192	4	120
HLD	7	264	0	96
HLD	7	336	2	96
HLD	8	24	6	120
HLD	8	96	0	96
HLD	8	168	4	120
HLD	8	240	1	96
HLD	8	312	6	24
HLD	9	0	3	12
HLD	9	0	4	6
HLD	9	72	3	6
HLD	9	72	4	12
BRK	9	144	1
BRK	9	144	6
TAP	9	288	6
STR	9	336	7
SI_	9	336	7	96	48	3
TAP	10	0	0
STR	10	48	1
SCL	10	48	1	96	240	6
BRK	10	192	7
TAP	10	336	5
TAP	11	48	5
STR	11	96	6
SI_	11	96	6	96	48	2
STR	11	144	7
SCL	11	144	7	96	144	4
TAP	11	336	2
STR	12	0	1
SI_	12	0	1	96	48	5
STR	12	48	0
SCR	12	48	0	96	144	3
TAP	12	288	1
STR	12	336	0
SI_	12	336	0	96	48	4
TAP	13	0	7
STR	13	48	6
SCR	13	48	6	96	240	1
BRK	13	192	0
TAP	13	288	2
TAP	13	312	2
HLD	13	336	2	432
TAP	14	48	3
TAP	14	72	3
STR	14	96	3
SCL	14	96	3	96	192	4
TAP	15	48	1
TAP	15	48	3
TAP	15	96	3
TAP	15	96	4
TAP	15	144	4
TAP	15	144	6
TAP	15	192	1
TAP	15	192	7
TAP	15	240	3
TAP	15	240	4
HLD	15	288	0	720
BST	15	288	6
SI_	15	288	6	96	120	2
TTP	16	48	0	C	1	M1
BST	16	192	5
SI_	16	192	5	96	120	1
TTP	16	336	0	C	1	M1
BST	17	96	4
SI_	17	96	4	96	120	0
TTP	17	240	0	C	1	M1
BST	18	0	0
SI_	18	0	0	96	120	4
BST	18	0	7
SI_	18	0	7	96	120	3
TTP	18	144	0	C	1	M1
HLD	18	288	0	720
BST	18	288	1
SI_	18	288	1	96	120	5
TTP	19	48	0	C	1	M1
BST	19	192	2
SI_	19	192	2	96	120	6
TTP	19	336	0	C	1	M1
BST	20	96	3
SI_	20	96	3	96	120	7
TTP	20	240	0	C	1	M1
BST	21	0	1
SI_	21	0	1	96	120	5
BST	21	0	7
SI_	21	0	7	96	120	3
TTP	21	144	0	C	1	M1
STR	21	288	5
SXL	21	288	5	96	1608	4
TTP	21	360	0	E	0	M1
TTP	22	48	0	C	1	M1
TTP	22	120	4	E	0	M1
TTP	22	192	3	E	0	M1
TTP	22	264	2	E	0	M1
TTP	22	336	0	C	1	M1
TTP	23	24	0	E	0	M1
TTP	23	96	1	E	0	M1
TTP	23	168	2	E	0	M1
TTP	23	240	0	C	1	M1
TTP	23	312	4	E	0	M1
TTP	24	0	3	E	0	M1
TTP	24	72	2	E	0	M1
TTP	24	144	0	C	1	M1
TTP	24	216	0	E	0	M1
TTP	24	288	1	E	0	M1
TTP	24	360	2	E	0	M1
TTP	25	48	0	C	1	M1
TTP	25	120	4	E	0	M1
TTP	25	192	3	E	0	M1
TTP	25	264	2	E	0	M1
TTP	25	336	0	C	1	M1
TTP	26	24	4	E	0	M1
HLD	26	96	6	114
HLD	26	168	5	108
HLD	26	240	4	102
HLD	26	312	3	96
HLD	27	0	2	90
HLD	27	72	1	84
HLD	27	144	0	78
HLD	27	216	7	72
HLD	27	288	6	48
TAP	27	336	4
TAP	27	360	5
TAP	28	0	4
HLD	28	48	1	48
TAP	28	96	3
TAP	28	120	2
TAP	28	144	3
TAP	28	192	0
TAP	28	192	7
TAP	28	240	1
TAP	28	240	6
TAP	28	288	3
TAP	28	288	4
BRK	28	336	1
BRK	28	336	6
TAP	29	0	0
TAP	29	48	0
STR	29	96	1
SCR	29	96	1	96	72	4
TAP	29	96	7
TAP	29	144	7
TAP	29	192	7
TAP	29	240	6
STR	29	288	5
SCR	29	288	5	96	96	1
TAP	29	336	4
TAP	30	0	3
TAP	30	48	3
TAP	30	96	2
HLD	30	144	2	144
TAP	30	192	3
TAP	30	240	4
HLD	30	288	6	96
TAP	30	336	7
TAP	31	0	0
HLD	31	48	2	96
STR	31	96	1
SCL	31	96	1	96	192	4
TAP	31	144	0
HLD	31	192	7	288
TAP	32	96	1
TAP	32	144	2
TAP	32	144	3
TAP	32	192	4
TAP	32	240	5
TAP	32	240	7
STR	32	288	0
SCL	32	288	0	96	96	4
TAP	32	288	6
TAP	32	336	1
TAP	32	336	7
XTP	33	0	0
TAP	33	0	2
TAP	33	96	0
TAP	33	144	1
TAP	33	144	7
TAP	33	192	2
TAP	33	192	6
TAP	33	240	3
TAP	33	240	5
TAP	33	288	1
TAP	33	288	6
TAP	33	336	5
TAP	33	360	4
TAP	34	0	5
TAP	34	48	1
TAP	34	48	6
TAP	34	96	2
TAP	34	120	3
TAP	34	144	2
TAP	34	192	6
TAP	34	192	7
TAP	34	240	4
TAP	34	240	5
TAP	34	288	3
TAP	34	288	6
BRK	34	336	2
BRK	34	336	7
TAP	35	0	0
TAP	35	48	7
TAP	35	96	0
STR	35	96	6
SCL	35	96	6	96	72	3
TAP	35	144	0
TAP	35	192	0
TAP	35	240	1
STR	35	288	2
SCL	35	288	2	96	96	6
TAP	35	336	3
TAP	36	0	4
TAP	36	48	4
TAP	36	96	5
HLD	36	144	5	144
TAP	36	192	4
TAP	36	240	3
HLD	36	288	1	96
TAP	36	336	0
TAP	37	0	7
HLD	37	48	5	96
STR	37	96	6
SCR	37	96	6	96	192	3
TAP	37	144	7
HLD	37	192	0	288
TAP	38	96	6
TAP	38	144	4
TAP	38	144	5
TAP	38	192	3
TAP	38	240	0
TAP	38	240	2
TAP	38	288	1
STR	38	288	7
SCL	38	288	7	96	144	2
TAP	38	336	0
TAP	38	336	6
HLD	39	0	5	96
XTP	39	0	7
TAP	39	144	6
STR	39	192	7
SCR	39	192	7	96	96	3
TAP	39	240	0
HLD	39	288	1	96
XTP	39	288	7
TAP	40	48	5
TAP	40	72	4
STR	40	96	5
SCR	40	96	5	96	192	2
SXL	40	96	5	96	192	2
TAP	40	120	4
TAP	40	144	5
STR	41	96	3
SI_	41	96	3	96	144	6
TTP	41	168	0	C	0	M1
HLD	41	240	5	144
STR	42	0	6
SCR	42	0	6	96	144	1
TTP	42	72	0	C	0	M1
HLD	42	144	0	144
STR	42	288	1
SUL	42	288	1	96	144	5
TTP	42	360	0	C	0	M1
HLD	43	48	3	144
STR	43	192	5
SUL	43	192	5	96	144	0
TTP	43	264	0	C	0	M1
HLD	43	336	6	144
STR	44	96	0
SUL	44	96	0	96	144	2
TTP	44	168	0	C	0	M1
HLD	44	240	1	144
STR	45	0	2
SUL	45	0	2	96	144	3
TTP	45	72	0	C	0	M1
HLD	45	144	4	144
STR	45	288	3
SUL	45	288	3	96	144	3
TTP	45	360	0	C	0	M1
HLD	46	48	5	144
STR	46	192	3
SLL	46	192	3	96	96	6
TTP	46	264	0	C	0	M1
BRK	46	336	6
STR	47	96	4
SI_	47	96	4	96	144	1
TTP	47	168	0	C	0	M1
TAP	47	216	2
HLD	47	240	2	144
STR	48	0	1
SCL	48	0	1	96	144	6
TTP	48	72	0	C	0	M1
TAP	48	120	7
HLD	48	144	7	144
STR	48	288	6
SUR	48	288	6	96	144	2
TTP	48	360	0	C	0	M1
TAP	49	24	4
HLD	49	48	4	144
STR	49	192	2
SUR	49	192	2	96	144	7
TTP	49	264	0	C	0	M1
TAP	49	312	1
HLD	49	336	1	144
STR	50	96	7
SUR	50	96	7	96	144	5
TTP	50	168	0	C	0	M1
TAP	50	216	6
HLD	50	240	6	144
STR	51	0	5
SUR	51	0	5	96	144	4
TTP	51	72	0	C	0	M1
TAP	51	120	3
HLD	51	144	3	144
STR	51	288	4
SUR	51	288	4	96	144	4
TTP	51	360	0	C	0	M1
TAP	52	24	2
HLD	52	48	2	144
STR	52	192	4
SLL	52	192	4	96	96	7
TTP	52	264	0	C	0	M1
BRK	52	312	0
BRK	52	336	0
HLD	53	96	1	48
HLD	53	144	2	48
HLD	53	192	3	48
HLD	53	240	1	48
HLD	53	288	2	48
HLD	53	336	3	48
HLD	54	0	6	48
HLD	54	48	5	48
HLD	54	96	4	48
TAP	54	144	5
TAP	54	168	4
TAP	54	192	5
TAP	54	216	4
TAP	54	240	6
HLD	54	288	3	48
HLD	54	336	7	48
HLD	55	0	4	48
TAP	55	48	0
STR	55	96	1
SCL	55	96	1	96	192	5
STR	55	96	5
SCL	55	96	5	96	192	1
TAP	55	144	1
TAP	55	144	5
HLD	56	96	6	48
HLD	56	144	5	48
HLD	56	192	4	48
HLD	56	240	7	48
HLD	56	288	6	48
HLD	56	336	5	48
HLD	57	0	7	48
HLD	57	48	1	48
HLD	57	96	3	48
TAP	57	144	2
TAP	57	168	3
TAP	57	192	2
TAP	57	216	3
TAP	57	240	1
HLD	57	288	5	48
HLD	57	336	3	48
HLD	58	0	1	48
HLD	58	48	5	48
HLD	58	96	7	48
TAP	58	144	1
STR	58	192	1
SXL	58	192	1	96	96	1
STR	58	192	5
SXL	58	192	5	96	96	5
TAP	58	240	1
TAP	58	240	5
TAP	59	96	6
HLD	59	120	6	24
HLD	59	144	5	48
HLD	59	192	4	48
TAP	59	240	6
HLD	59	264	6	24
HLD	59	288	5	48
HLD	59	336	4	48
TAP	60	0	1
HLD	60	24	1	24
HLD	60	48	2	48
HLD	60	96	3	48
TAP	60	144	2
TAP	60	168	3
TAP	60	192	2
TAP	60	216	3
TAP	60	240	1
TAP	60	288	4
HLD	60	312	4	24
HLD	60	336	0	48
HLD	61	0	3	48
TAP	61	48	7
TAP	61	96	2
STR	61	96	6
SCR	61	96	6	96	192	2
STR	61	144	2
SCR	61	144	2	96	144	6
TAP	61	144	6
TAP	62	96	1
HLD	62	120	1	24
HLD	62	144	2	48
HLD	62	192	3	48
TAP	62	240	0
HLD	62	264	0	24
HLD	62	288	1	48
HLD	62	336	2	48
TAP	63	0	0
HLD	63	24	0	24
HLD	63	48	6	48
HLD	63	96	4	48
TAP	63	144	5
TAP	63	168	4
TAP	63	192	5
TAP	63	216	4
TAP	63	240	6
TAP	63	288	2
HLD	63	312	2	24
HLD	63	336	4	48
HLD	64	0	6	48
TAP	64	48	2
HLD	64	72	2	24
HLD	64	96	0	48
TAP	64	144	6
TAP	64	192	2
STR	64	192	6
SXR	64	192	6	96	96	6
STR	64	240	2
SXR	64	240	2	96	48	2
TAP	64	240	6
HLD	65	96	6	48
TAP	65	144	4
TAP	65	168	5
TAP	65	192	4
HLD	65	240	1	48
TAP	65	288	3
TAP	65	312	2
TAP	65	336	3
HLD	66	0	7	48
TAP	66	48	4
TAP	66	72	5
TAP	66	96	4
HLD	66	144	0	48
TAP	66	192	3
TAP	66	216	2
TAP	66	240	3
TAP	66	288	0
TAP	66	312	7
TAP	66	336	0
TAP	66	360	7
TAP	67	0	0
TAP	67	24	7
TAP	67	48	1
TAP	67	72	6
TAP	67	96	1
TAP	67	120	6
TAP	67	144	1
TAP	67	168	6
BRK	67	192	1
BRK	67	240	3
BRK	67	240	4
BRK	67	288	0
BRK	67	288	7
BRK	67	336	1
BRK	67	336	6
TAP	68	0	7
TAP	68	48	6
STR	68	96	5
SCL	68	96	5	96	72	2
TAP	68	96	7
TAP	68	144	7
TAP	68	192	7
TAP	68	240	0
STR	68	288	1
SCL	68	288	1	96	96	5
TAP	68	336	2
TAP	69	0	3
TAP	69	48	3
TAP	69	96	4
HLD	69	144	4	144
TAP	69	192	3
TAP	69	240	2
HLD	69	288	1	96
TAP	69	336	0
STR	70	0	7
SUR	70	0	7	96	96	5
TAP	70	48	6
STR	70	96	5
SCR	70	96	5	96	192	2
TAP	70	144	4
HLD	70	192	3	144
TAP	71	96	6
TAP	71	144	4
TAP	71	144	5
TAP	71	192	2
TAP	71	240	1
TAP	71	240	7
TAP	71	288	0
STR	71	288	6
SCR	71	288	6	96	96	2
TAP	71	336	5
TAP	71	336	7
TAP	72	0	4
XTP	72	0	6
TAP	72	96	7
TAP	72	144	0
TAP	72	144	6
TAP	72	192	1
TAP	72	192	5
TAP	72	240	2
TAP	72	240	4
HLD	72	288	3	48
TAP	72	288	7
TAP	72	336	5
TAP	72	360	4
TAP	73	0	5
TAP	73	48	0
HLD	73	48	4	48
TAP	73	96	2
TAP	73	120	3
TAP	73	144	2
TAP	73	192	0
TAP	73	192	1
TAP	73	240	2
TAP	73	240	3
TAP	73	288	6
TAP	73	288	7
BRK	73	336	0
BRK	73	336	5
TAP	74	0	1
TAP	74	48	1
TAP	74	96	0
STR	74	96	2
SCR	74	96	2	96	72	5
TAP	74	144	0
TAP	74	192	0
TAP	74	240	7
STR	74	288	6
SCR	74	288	6	96	96	2
TAP	74	336	5
TAP	75	0	4
TAP	75	48	4
TAP	75	96	3
HLD	75	144	3	144
TAP	75	192	4
TAP	75	240	5
HLD	75	288	6	96
TAP	75	336	7
STR	76	0	0
SUL	76	0	0	96	96	2
TAP	76	48	1
STR	76	96	2
SCL	76	96	2	96	192	5
TAP	76	144	3
HLD	76	192	4	144
TAP	77	96	1
TAP	77	144	2
TAP	77	144	3
TAP	77	192	5
TAP	77	240	0
TAP	77	240	6
STR	77	288	1
SCR	77	288	1	96	144	6
TAP	77	288	7
TAP	77	336	0
TAP	77	336	2
XTP	78	0	1
HLD	78	0	3	96
TAP	78	144	1
STR	78	192	0
SCL	78	192	0	96	96	4
TAP	78	240	7
XTP	78	288	0
HLD	78	288	6	96
TAP	79	48	5
TAP	79	72	4
STR	79	96	5
SCR	79	96	5	96	192	2
SXL	79	96	5	96	192	2
TAP	79	120	4
TAP	79	144	5
HLD	80	96	1	480
BST	80	96	6
SI_	80	96	6	96	576	2
BRK	81	288	5

T_REC_TAP	265
T_REC_BRK	22
T_REC_XTP	6
T_REC_HLD	134
T_REC_XHO	0
T_REC_STR	56
T_REC_BST	13
T_REC_XST	0
T_REC_TTP	47
T_REC_THO	0
T_REC_SLD	71
T_REC_ALL	614
T_NUM_TAP	374
T_NUM_BRK	35
T_NUM_HLD	134
T_NUM_SLD	71
T_NUM_ALL	614
T_JUDGE_TAP	409
T_JUDGE_HLD	303
T_JUDGE_SLD	71
T_JUDGE_ALL	783
TTM_EACHPAIRS	74
TTM_SCR_TAP	187000
TTM_SCR_BRK	91000
TTM_SCR_HLD	134000
TTM_SCR_SLD	106500
TTM_SCR_ALL	518500
TTM_SCR_S	499550
TTM_SCR_SS	515000
TTM_RAT_ACV	10067

