VERSION	0.00.00	1.03.00
FES_MODE	0
BPM_DEF	130.000	130.000	130.000	130.000
MET_DEF	4	4
RESOLUTION	384
CLK_DEF	384
COMPATIBLE_CODE	MA2

BPM	0	0	130.000
MET	0	0	4	3

THO	1	192	0	288	C	0	L1
TTP	3	0	0	C	1	L1
XTP	3	336	0
XTP	3	336	6
TAP	4	192	5
TAP	4	264	5
TAP	4	336	4
TAP	4	336	5
TAP	5	96	3
TAP	5	168	3
TAP	5	240	3
TAP	5	240	4
TAP	6	0	2
TAP	6	72	2
TAP	6	144	2
TAP	6	144	3
TAP	6	288	1
TAP	6	360	1
TAP	7	48	1
TAP	7	48	3
TAP	7	192	6
TAP	7	264	5
TAP	7	336	4
TAP	7	336	5
TAP	8	96	1
TAP	8	168	2
TAP	8	240	2
TAP	8	240	3
XHO	9	0	3	72
XHO	9	0	4	144
XTP	9	288	2
XTP	9	288	3
TAP	10	0	1
TAP	10	48	1
TAP	10	144	2
TAP	10	192	2
TAP	10	288	3
TAP	10	336	3
TAP	10	336	4
TAP	11	96	4
TAP	11	96	5
TAP	11	192	6
TAP	11	240	6
TAP	11	336	5
TAP	12	0	5
TAP	12	96	4
TAP	12	144	3
TAP	12	144	4
XTP	12	288	2
XTP	12	288	3
TAP	13	0	1
TAP	13	48	1
TAP	13	144	0
TAP	13	192	0
TAP	13	288	7
TAP	13	336	1
TAP	13	336	7
HLD	14	96	4	144
HLD	14	96	5	144
HLD	15	0	2	144
HLD	15	0	3	144
TTP	15	288	3	B	0	L1
TTP	16	48	5	B	0	L1
TTP	16	48	5	E	0	L1
TTP	16	192	4	B	0	L1
TTP	16	336	1	B	0	L1
TTP	16	336	2	B	0	L1
TTP	17	96	0	C	0	L1
TTP	17	240	6	B	0	L1
TTP	17	240	6	E	0	L1
TTP	18	0	0	E	0	L1
TTP	18	144	1	E	0	L1
TTP	18	144	1	B	0	L1
TTP	18	288	0	C	0	L1
TTP	19	48	6	B	0	L1
TTP	19	48	7	E	0	L1
TTP	19	192	0	C	0	L1
TTP	19	336	1	B	0	L1
TTP	19	336	2	E	0	L1
TTP	20	96	3	B	0	L1
TTP	20	96	4	B	0	L1
TTP	20	240	2	B	0	L1
TTP	20	240	5	B	0	L1
THO	21	0	0	144	C	0	L1
TTP	21	288	1	E	0	L1
TTP	21	360	0	B	0	L1
TTP	22	48	7	B	0	L1
TTP	22	192	5	B	0	L1
TTP	22	264	6	B	0	L1
TTP	22	336	7	E	0	L1
TTP	23	96	3	B	0	L1
TTP	23	168	0	C	0	L1
TTP	23	240	0	B	0	L1
TTP	24	0	4	B	0	L1
TTP	24	72	0	C	0	L1
TTP	24	144	7	B	0	L1
TTP	24	288	3	B	0	L1
TTP	24	360	2	B	0	L1
TTP	25	48	1	E	0	L1
TTP	25	48	2	E	0	L1
TTP	25	192	4	B	0	L1
TTP	25	264	5	B	0	L1
TTP	25	336	6	E	0	L1
TTP	25	336	7	E	0	L1
THO	26	96	0	288	C	0	L1
XTP	27	288	1
XTP	27	288	3
XTP	28	48	4
XTP	28	48	6
TAP	28	192	2
TAP	28	192	5
TAP	28	240	2
TAP	28	240	5
TAP	28	288	2
TAP	28	288	5
BRK	28	336	2
BRK	28	336	5
TAP	29	96	2
TAP	29	192	1
TAP	29	192	3
TAP	29	240	1
TAP	29	240	3
TAP	29	336	0
TAP	30	0	0
TAP	30	96	1
TAP	30	96	7
TAP	30	144	1
TAP	30	144	7
TAP	30	240	6
HLD	30	288	6	144
HLD	31	48	5	288
HLD	31	192	4	144
TAP	32	96	2
TAP	32	96	3
TAP	32	192	1
TAP	32	240	1
TAP	32	336	0
TAP	32	336	7
TAP	33	0	0
TAP	33	0	7
TAP	33	96	6
TAP	33	144	6
TAP	33	240	4
TAP	33	240	5
XTP	33	288	4
XTP	33	288	5
XTP	34	48	2
XTP	34	48	3
XTP	34	192	3
XTP	34	192	4
XTP	34	288	2
XTP	34	288	5
XTP	34	336	2
XTP	34	336	5
TAP	35	96	6
TAP	35	192	5
TAP	35	192	7
TAP	35	240	5
TAP	35	240	7
TAP	35	336	4
TAP	36	0	4
TAP	36	96	3
TAP	36	96	5
TAP	36	144	3
TAP	36	144	5
TAP	36	240	2
HLD	36	288	2	144
HLD	37	48	1	288
HLD	37	192	0	144
TAP	38	96	2
TAP	38	144	2
TAP	38	192	2
TAP	38	240	2
TAP	38	240	3
TAP	39	0	6
TAP	39	48	6
TAP	39	96	6
TAP	39	144	4
TAP	39	144	6
HLD	39	288	0	144
STR	40	48	7
SCL	40	48	7	96	240	3
XHO	41	96	2	288
HLD	41	240	3	288
HLD	42	288	1	288
HLD	43	48	0	288
HLD	44	96	6	288
HLD	44	240	7	288
HLD	45	288	5	288
HLD	46	48	4	288
TAP	47	96	2
HLD	47	96	3	288
TAP	47	192	1
HLD	47	240	1	144
TAP	48	96	2
TAP	48	144	2
HLD	48	288	4	288
TAP	48	288	5
TAP	49	0	6
HLD	49	48	6	144
TAP	49	288	5
TAP	49	336	5
HLD	50	96	0	288
TAP	50	96	1
TAP	50	192	2
HLD	50	240	2	144
TAP	51	96	1
TAP	51	144	1
HLD	51	288	0	288
TAP	51	288	7
TAP	52	0	6
HLD	52	48	6	144
TAP	52	288	7
BRK	52	336	7
STR	53	96	5
SUR	53	96	5	96	288	3
STR	54	288	2
SUL	54	288	2	96	288	4
STR	56	96	3
SUR	56	96	3	96	288	1
STR	57	288	2
SV_	57	288	2	96	288	7
STR	57	288	3
SV_	57	288	3	96	288	6
HLD	59	96	1	144
HLD	59	240	2	144
HLD	60	0	3	144
XTP	60	144	4
HLD	60	288	5	144
XHO	61	48	6	144
HLD	61	192	7	144
XHO	61	336	0	144
HLD	62	96	7	144
XHO	62	240	6	144
HLD	63	0	5	144
XHO	63	144	4	144
HLD	63	288	3	144
XHO	64	48	2	144
HLD	64	192	1	144
BRK	64	336	0
TAP	65	96	0
TAP	65	96	1
TAP	65	240	1
TAP	65	240	2
TAP	66	0	2
TAP	66	0	3
TAP	66	144	3
TAP	66	144	4
XTP	66	288	4
XTP	66	288	5
XTP	67	48	5
XTP	67	48	6
TTP	67	192	0	C	1	L1
TAP	68	96	0
TAP	68	144	0
TAP	68	192	0
TAP	68	240	1
TAP	68	240	7
TAP	69	0	2
TAP	69	48	2
TAP	69	96	2
TAP	69	144	1
TAP	69	144	3
HLD	69	288	4	144
HLD	70	48	5	288
HLD	70	192	3	144
TAP	71	96	5
TAP	71	192	6
TAP	71	192	7
TAP	71	240	6
TAP	71	240	7
TAP	71	336	0
TAP	71	336	1
TAP	72	0	0
TAP	72	0	1
TAP	72	96	2
TAP	72	96	3
TAP	72	144	2
TAP	72	144	3
TAP	72	240	4
TAP	72	240	5
XTP	72	288	4
XTP	72	288	5
XTP	73	48	1
XTP	73	48	3
TAP	73	192	6
TAP	73	240	6
TAP	73	288	6
XTP	73	336	0
XTP	73	336	6
TAP	74	96	1
TAP	74	144	1
TAP	74	192	1
TAP	74	240	0
TAP	74	240	2
TAP	75	0	4
TAP	75	48	4
TAP	75	96	4
TAP	75	144	3
TAP	75	144	5
HLD	75	288	7	144
HLD	76	48	6	288
HLD	76	192	0	144
TAP	77	96	1
TAP	77	192	1
TAP	77	192	3
TAP	77	240	1
TAP	77	240	3
TAP	77	336	2
TAP	77	336	3
TAP	78	0	2
TAP	78	0	3
TAP	78	96	4
TAP	78	96	6
TAP	78	144	4
TAP	78	144	6
TAP	78	240	4
TAP	78	240	5
XTP	78	288	4
XTP	78	288	5
TAP	79	0	0
TAP	79	0	7
TAP	79	48	0
TAP	79	48	7
TAP	79	144	2
TAP	79	144	3
HLD	79	192	2	144
HLD	79	192	3	288
THO	80	96	0	576	C	0	L1

T_REC_TAP	181
T_REC_BRK	4
T_REC_XTP	33
T_REC_HLD	43
T_REC_XHO	8
T_REC_STR	6
T_REC_BST	0
T_REC_XST	0
T_REC_TTP	44
T_REC_THO	4
T_REC_SLD	6
T_REC_ALL	329
T_NUM_TAP	264
T_NUM_BRK	4
T_NUM_HLD	55
T_NUM_SLD	6
T_NUM_ALL	329
T_JUDGE_TAP	268
T_JUDGE_HLD	230
T_JUDGE_SLD	6
T_JUDGE_ALL	504
TTM_EACHPAIRS	78
TTM_SCR_TAP	132000
TTM_SCR_BRK	10400
TTM_SCR_HLD	55000
TTM_SCR_SLD	9000
TTM_SCR_ALL	206400
TTM_SCR_S	199850
TTM_SCR_SS	206000
TTM_RAT_ACV	10019

