VERSION	0.00.00	1.03.00
FES_MODE	0
BPM_DEF	130.000	130.000	130.000	130.000
MET_DEF	4	4
RESOLUTION	384
CLK_DEF	288
COMPATIBLE_CODE	MA2

BPM	0	0	130.000
MET	0	0	4	3

XHO	4	192	3	288
XHO	6	0	4	288
TAP	7	192	3
TAP	7	336	3
TAP	8	96	4
TAP	8	240	4
BRK	9	0	3
BRK	9	0	4
TAP	9	288	3
TAP	10	48	3
TAP	10	192	2
TAP	10	336	2
TAP	11	96	1
TAP	11	240	1
TAP	12	0	0
TAP	12	144	0
TAP	12	288	7
TAP	13	48	7
TAP	13	192	6
TAP	13	336	6
TAP	14	96	5
TAP	14	240	5
TAP	15	0	3
TAP	15	0	4
TTP	15	288	3	B	0	L1
TTP	16	192	2	B	0	L1
TTP	17	96	3	B	0	L1
TTP	18	0	4	B	0	L1
TTP	18	288	5	B	0	L1
TTP	19	192	5	E	0	L1
TTP	20	96	4	E	0	L1
TTP	21	0	3	E	0	L1
TTP	21	288	3	B	0	L1
TTP	21	288	4	B	0	L1
TTP	22	192	4	B	0	L1
TTP	22	192	5	B	0	L1
TTP	23	96	3	B	0	L1
TTP	23	96	4	B	0	L1
TTP	24	0	2	E	0	L1
TTP	24	0	3	E	0	L1
TTP	24	288	3	B	0	L1
TTP	24	288	4	B	0	L1
TTP	24	288	4	E	0	L1
TTP	25	192	5	E	0	L1
TTP	25	192	6	E	0	L1
HLD	26	96	3	432
HLD	26	96	4	432
THO	27	288	0	288	C	1	L1
XHO	29	96	0	144
XHO	30	0	1	144
TAP	30	288	2
TAP	31	0	3
TAP	31	48	3
TAP	31	144	4
XHO	31	192	4	144
TAP	32	96	3
TAP	32	96	4
TAP	32	192	4
TAP	32	240	4
TAP	32	336	5
XHO	33	0	5	144
TAP	33	288	3
TAP	33	288	4
TAP	34	0	3
TAP	34	48	3
TAP	34	144	2
XHO	34	192	2	144
XHO	35	96	4	144
XHO	36	0	5	144
TAP	36	288	6
TAP	37	0	7
TAP	37	48	7
TAP	37	144	0
XHO	37	192	0	144
TAP	38	96	0
TAP	38	96	7
TAP	38	192	0
TAP	38	240	0
TAP	38	336	1
XHO	39	0	1	144
TAP	39	288	0
TAP	39	288	7
TAP	40	0	7
TAP	40	48	7
TAP	40	144	6
XHO	40	192	6	144
STR	41	96	0
SI_	41	96	0	96	192	4
STR	42	288	7
SI_	42	288	7	96	192	3
STR	44	96	2
SI_	44	96	2	96	192	6
STR	45	288	4
SI_	45	288	4	96	192	0
TAP	47	96	3
XTP	47	240	2
XTP	47	240	3
TAP	48	0	4
XTP	48	144	4
XTP	48	144	5
TAP	48	288	3
XTP	49	48	2
XTP	49	48	3
TAP	49	192	4
XTP	49	336	4
XTP	49	336	5
HLD	50	96	3	144
HLD	50	96	5	144
HLD	51	0	2	144
HLD	51	0	4	144
TAP	51	288	3
TAP	52	48	4
XTP	52	192	2
XTP	52	192	5
TTP	53	96	6	B	0	L1
TTP	54	0	7	B	0	L1
TTP	54	288	0	B	0	L1
TTP	55	192	1	B	0	L1
TTP	56	96	2	B	0	L1
TTP	57	0	3	B	0	L1
XHO	57	288	3	288
XHO	57	288	4	288
TTP	59	96	3	E	0	L1
TTP	59	240	0	C	0	L1
TTP	60	0	2	E	0	L1
TTP	60	144	0	C	0	L1
TTP	60	288	1	E	0	L1
TTP	61	48	0	C	0	L1
TTP	61	192	0	E	0	L1
TTP	61	336	0	C	0	L1
TTP	62	96	7	E	0	L1
TTP	62	240	0	C	0	L1
TTP	63	0	6	E	0	L1
TTP	63	144	0	C	0	L1
TTP	63	288	5	E	0	L1
TTP	64	48	0	C	0	L1
TTP	64	192	4	E	0	L1
TTP	64	336	0	C	0	L1
XHO	65	96	0	288
XHO	65	96	7	288
THO	66	288	0	288	C	1	L1
XTP	68	96	0
XTP	68	96	7
TAP	68	192	1
TAP	68	240	1
TAP	68	336	0
XTP	69	0	0
TAP	69	96	7
TAP	69	144	7
TAP	69	240	6
XTP	69	288	6
TAP	70	0	7
XTP	70	48	7
TAP	70	144	0
XHO	70	192	0	144
XTP	71	96	0
XTP	71	96	1
TAP	71	192	2
TAP	71	240	2
TAP	71	336	3
XTP	72	0	3
TAP	72	96	4
TAP	72	144	4
TAP	72	240	5
XTP	72	288	5
TAP	73	0	6
XTP	73	48	6
TAP	73	144	7
XTP	73	192	0
TAP	73	240	0
TAP	73	288	7
BRK	73	336	7
XTP	74	96	0
XTP	74	96	7
TAP	74	192	6
TAP	74	240	6
TAP	74	336	7
XTP	75	0	7
TAP	75	96	0
TAP	75	144	0
TAP	75	240	1
XTP	75	288	1
TAP	76	0	0
XTP	76	48	0
TAP	76	144	7
XHO	76	192	7	144
XTP	77	96	6
XTP	77	96	7
TAP	77	192	5
TAP	77	240	5
TAP	77	336	4
XTP	78	0	4
TAP	78	96	3
TAP	78	144	3
TAP	78	240	2
XTP	78	288	2
TAP	79	0	1
XTP	79	48	1
TAP	79	144	0
XTP	79	192	7
TAP	79	240	7
TAP	79	288	0
BRK	79	336	0
XST	80	96	7
SI_	80	96	7	96	480	3

T_REC_TAP	90
T_REC_BRK	4
T_REC_XTP	32
T_REC_HLD	6
T_REC_XHO	18
T_REC_STR	4
T_REC_BST	0
T_REC_XST	1
T_REC_TTP	43
T_REC_THO	2
T_REC_SLD	5
T_REC_ALL	205
T_NUM_TAP	170
T_NUM_BRK	4
T_NUM_HLD	26
T_NUM_SLD	5
T_NUM_ALL	205
T_JUDGE_TAP	174
T_JUDGE_HLD	114
T_JUDGE_SLD	5
T_JUDGE_ALL	293
TTM_EACHPAIRS	20
TTM_SCR_TAP	85000
TTM_SCR_BRK	10400
TTM_SCR_HLD	26000
TTM_SCR_SLD	7500
TTM_SCR_ALL	128900
TTM_SCR_S	124650
TTM_SCR_SS	128500
TTM_RAT_ACV	10031

