VERSION	0.00.00	1.03.00
FES_MODE	0
BPM_DEF	222.000	222.000	333.000	222.000
MET_DEF	4	4
RESOLUTION	384
CLK_DEF	384
COMPATIBLE_CODE	MA2

BPM	0	0	222.000
BPM	67	0	333.000
BPM	153	0	222.000
MET	0	0	4	4

HLD	2	0	3	192
BRK	2	0	4
HLD	2	192	2	192
HLD	3	0	1	192
STR	3	192	0
SCR	3	192	0	96	480	5
TAP	4	0	7
TAP	4	192	6
TAP	5	0	6
TAP	5	192	3
TAP	5	192	6
XTP	6	0	3
HLD	6	0	4	192
HLD	6	192	5	192
HLD	7	0	6	192
STR	7	192	7
SLL	7	192	7	96	480	2
XTP	8	0	0
TAP	8	192	1
XTP	9	0	1
HLD	9	192	3	192
TAP	9	192	4
TAP	10	0	4
TAP	10	96	4
TAP	10	192	2
TAP	10	192	4
TAP	10	288	4
TTP	11	0	0	B	0	M1
TTP	11	0	1	B	0	M1
TAP	11	0	4
TAP	11	96	4
TAP	11	192	2
TAP	11	192	4
TAP	11	288	4
TAP	12	0	3
TAP	12	0	4
TAP	12	96	3
TAP	12	192	3
TAP	12	192	5
TAP	12	288	3
TAP	13	0	3
TTP	13	0	6	B	0	M1
TTP	13	0	7	B	0	M1
TAP	13	96	3
TAP	13	192	3
TAP	13	192	5
TAP	13	288	3
XTP	14	0	3
XTP	14	0	4
TAP	14	96	4
TAP	14	192	2
TAP	14	192	4
TAP	14	288	4
TTP	15	0	0	B	0	M1
TTP	15	0	1	E	0	M1
TAP	15	0	4
TAP	15	96	4
TAP	15	192	2
TAP	15	192	4
TAP	15	288	4
THO	16	0	0	384	C	0	M1
TAP	16	0	4
TTP	17	0	0	B	0	M1
TTP	17	0	1	E	0	M1
TTP	17	0	1	B	0	M1
TTP	17	0	6	B	0	M1
TTP	17	0	7	B	0	M1
TTP	17	0	7	E	0	M1
TTP	17	192	2	B	0	M1
TTP	17	192	3	B	0	M1
TTP	17	192	3	E	0	M1
TTP	17	192	4	B	0	M1
TTP	17	192	5	E	0	M1
TTP	17	192	5	B	0	M1
TAP	18	0	6
TAP	18	48	6
TAP	18	48	7
TAP	18	96	0
STR	18	96	5
SI_	18	96	5	96	48	0
STR	18	192	1
SI_	18	192	1	96	48	5
TAP	18	288	7
XTP	19	0	4
XTP	19	0	6
TAP	19	96	0
TAP	19	96	1
TAP	19	144	2
TAP	19	144	7
STR	19	192	3
SI_	19	192	3	96	48	0
STR	19	192	6
SI_	19	192	6	96	48	2
BRK	20	0	7
TAP	20	96	6
TAP	20	120	4
TAP	20	144	6
TAP	20	192	2
TAP	20	216	4
TAP	20	240	2
TAP	20	288	5
TAP	20	312	4
TAP	20	336	5
TAP	20	360	4
TAP	21	0	7
TAP	21	24	0
TAP	21	48	7
TAP	21	72	0
STR	21	96	7
SCL	21	96	7	96	144	1
TAP	21	120	0
TAP	21	144	7
TAP	21	168	0
BRK	21	192	7
STR	22	0	0
SI_	22	0	0	96	48	4
STR	22	96	4
SI_	22	96	4	96	48	0
STR	22	192	6
SI_	22	192	6	96	48	2
XHO	22	288	1	96
XTP	23	0	0
XTP	23	72	1
XTP	23	72	3
XTP	23	144	4
XTP	23	144	5
XTP	23	192	3
XTP	23	192	6
TAP	23	288	0
TAP	23	288	5
TAP	24	0	6
TAP	24	32	5
TAP	24	64	4
TAP	24	96	0
TAP	24	128	1
TAP	24	160	2
TTP	24	192	0	E	0	M1
TTP	24	224	7	E	0	M1
TTP	24	256	6	E	0	M1
TTP	24	288	2	E	0	M1
TTP	24	320	3	E	0	M1
TTP	24	352	4	E	0	M1
THO	25	0	0	96	C	0	M1
TAP	25	192	0
TAP	25	192	7
XTP	25	288	2
XTP	25	288	5
TAP	26	0	1
TAP	26	48	0
TAP	26	48	1
STR	26	96	2
SI_	26	96	2	96	48	7
TAP	26	96	7
STR	26	192	6
SI_	26	192	6	96	48	2
TAP	26	288	0
XTP	27	0	1
XTP	27	0	3
TAP	27	96	6
TAP	27	96	7
TAP	27	144	0
TAP	27	144	5
STR	27	192	1
SI_	27	192	1	96	48	5
STR	27	192	4
SI_	27	192	4	96	48	7
BRK	28	0	0
TAP	28	96	1
TAP	28	120	3
TAP	28	144	1
TAP	28	192	5
TAP	28	216	3
TAP	28	240	5
TAP	28	288	2
TAP	28	312	3
TAP	28	336	2
TAP	28	360	3
TAP	29	0	0
TAP	29	24	7
TAP	29	48	0
TAP	29	72	7
STR	29	96	0
SCR	29	96	0	96	144	6
TAP	29	120	7
TAP	29	144	0
TAP	29	168	7
BRK	29	192	0
STR	30	0	7
SI_	30	0	7	96	48	3
STR	30	96	3
SI_	30	96	3	96	48	7
STR	30	192	1
SI_	30	192	1	96	48	5
XHO	30	288	6	96
XTP	31	0	7
XTP	31	72	4
XTP	31	72	5
XTP	31	144	2
XTP	31	144	3
XTP	31	192	1
XTP	31	192	4
XTP	31	288	3
XTP	31	288	6
BRK	32	0	2
TAP	32	32	3
TAP	32	64	2
TAP	32	96	4
TAP	32	128	3
TAP	32	160	4
BRK	32	192	1
TAP	32	224	3
TAP	32	256	1
TAP	32	288	5
TAP	32	320	3
TAP	32	352	5
BRK	33	0	0
TAP	33	24	1
TAP	33	48	2
TAP	33	72	3
TAP	33	96	4
TAP	33	120	5
TAP	33	144	6
TAP	33	168	7
TAP	33	192	0
TAP	33	192	5
XTP	33	288	2
XTP	33	288	6
STR	34	0	3
SCL	34	0	3	96	96	0
TAP	34	96	5
TAP	34	144	5
TAP	34	240	6
TAP	34	288	6
TAP	34	288	7
TAP	35	0	4
STR	35	0	5
SCR	35	0	5	96	96	0
TAP	35	96	3
TAP	35	144	3
TAP	35	240	1
TAP	35	288	1
TAP	35	288	3
TTP	36	0	0	C	0	M1
TTP	36	96	7	E	0	M1
TTP	36	144	4	B	0	M1
TTP	36	144	5	E	0	M1
TTP	36	240	1	E	0	M1
TTP	36	288	3	B	0	M1
TTP	36	288	3	E	0	M1
TTP	37	0	0	E	0	M1
TTP	37	48	0	C	0	M1
TTP	37	96	4	E	0	M1
TTP	37	144	1	B	0	M1
TTP	37	144	2	B	0	M1
TTP	37	144	5	B	0	M1
TTP	37	144	6	B	0	M1
TAP	37	240	7
TAP	37	288	7
TAP	38	0	0
STR	38	0	6
SCL	38	0	6	96	96	3
TAP	38	96	2
TAP	38	144	2
TAP	38	240	1
TAP	38	288	1
TAP	38	288	7
STR	39	0	0
SCR	39	0	0	96	96	3
TAP	39	0	4
TAP	39	96	5
TAP	39	144	5
TAP	39	240	6
TAP	39	288	4
TAP	39	288	6
TTP	40	0	0	C	0	M1
TTP	40	0	2	E	0	M1
TTP	40	0	6	E	0	M1
TTP	40	96	5	E	0	M1
TTP	40	144	7	B	0	M1
TTP	40	144	7	E	0	M1
TTP	40	240	3	E	0	M1
TTP	40	288	0	B	0	M1
TTP	40	288	1	E	0	M1
XTP	41	0	7
TAP	41	96	4
TAP	41	96	5
TAP	41	144	3
TAP	41	144	6
TAP	41	240	2
TAP	41	240	3
BRK	41	288	1
BRK	41	288	4
TAP	42	0	3
TAP	42	96	3
TAP	42	96	5
TAP	42	192	3
STR	42	192	7
SI_	42	192	7	96	96	3
TAP	42	288	2
TAP	42	336	2
TAP	43	0	2
TAP	43	96	2
TAP	43	96	4
TAP	43	192	2
STR	43	192	5
SCL	43	192	5	96	96	2
TAP	43	288	1
TAP	43	336	1
XTP	44	0	1
TAP	44	96	0
TAP	44	96	1
TAP	44	192	1
STR	44	192	5
SCR	44	192	5	96	96	0
TAP	44	288	2
TAP	44	336	2
HLD	45	0	2	96
HLD	45	96	3	96
TAP	45	192	4
TAP	45	288	3
TAP	45	288	5
TAP	46	0	2
TAP	46	0	4
TAP	46	48	2
TAP	46	96	2
TAP	46	144	2
TAP	46	192	2
TAP	46	192	6
TAP	46	240	6
TAP	46	288	6
TAP	46	336	6
TAP	47	0	1
TAP	47	0	6
TAP	47	48	1
TAP	47	96	1
TAP	47	144	1
TAP	47	192	1
TAP	47	192	7
TAP	47	240	7
TAP	47	288	7
TAP	47	336	7
TAP	48	0	1
TAP	48	24	3
TAP	48	48	1
TAP	48	72	3
TAP	48	96	2
TAP	48	120	4
TAP	48	144	2
TAP	48	168	4
TAP	48	192	3
TAP	48	216	5
TAP	48	240	3
TAP	48	264	5
TAP	48	288	0
TAP	48	312	7
TAP	48	336	0
TAP	48	360	7
TAP	49	0	0
TAP	49	24	1
TAP	49	48	2
TAP	49	72	3
TAP	49	96	6
TAP	49	120	5
TAP	49	144	4
TAP	49	168	3
TAP	49	192	1
TAP	49	216	2
TAP	49	240	3
TAP	49	264	4
TAP	49	288	5
TAP	49	312	6
TAP	49	336	7
TAP	49	360	0
BST	50	0	1
SCR	50	0	1	96	384	5
BRK	50	0	5
STR	51	0	5
SUL	51	0	5	96	288	1
STR	52	0	7
SCL	52	0	7	96	384	2
STR	53	0	2
SUR	53	0	2	96	288	7
XST	54	0	0
SLR	54	0	0	96	384	5
TAP	54	192	6
STR	55	0	5
SLL	55	0	5	96	288	0
TAP	55	192	7
XST	56	0	6
SI_	56	0	6	96	240	1
TAP	56	192	2
XST	57	0	2
SI_	57	0	2	96	240	5
TAP	57	192	6
XTP	58	0	6
TAP	58	96	5
TAP	58	192	4
TAP	58	288	3
TAP	59	0	3
TTP	59	0	4	E	0	M1
TAP	59	96	2
TAP	59	192	1
TAP	59	288	0
XTP	60	0	0
TTP	60	0	0	C	0	M1
TAP	60	96	7
TAP	60	192	6
TAP	60	288	5
TTP	61	0	0	E	0	M1
TAP	61	0	5
TAP	61	96	4
TAP	61	192	3
TAP	61	288	2
TAP	62	0	2
TTP	62	0	5	E	0	M1
TAP	62	96	2
TTP	62	192	0	C	0	M1
TAP	62	192	2
TAP	62	288	2
TTP	63	0	1	E	0	M1
TAP	63	0	2
TAP	63	96	2
TTP	63	192	0	C	0	M1
TAP	63	192	2
TAP	63	288	2
TTP	64	0	3	E	0	M1
TAP	64	0	5
TAP	64	96	5
TTP	64	192	0	C	0	M1
TAP	64	192	5
TAP	64	288	5
TAP	65	0	5
TTP	65	0	7	E	0	M1
TAP	65	96	5
TTP	65	192	0	C	0	M1
TAP	65	192	5
TAP	65	288	5
TTP	66	0	4	E	0	M1
XTP	66	0	6
TAP	66	96	6
TTP	66	192	0	C	0	M1
XTP	66	192	6
TAP	66	288	6
TTP	67	0	0	E	0	M1
XTP	67	0	1
XTP	67	144	1
TTP	67	144	7	E	0	M1
XTP	67	288	1
TTP	67	288	6	E	0	M1
XTP	68	48	1
TTP	68	48	5	E	0	M1
HLD	68	192	1	96
HLD	68	288	2	96
HLD	69	0	3	96
HLD	69	96	7	96
HLD	69	192	6	96
TAP	69	288	5
TAP	70	0	0
TAP	70	48	7
TAP	70	96	1
TAP	70	144	6
TAP	70	192	2
TAP	70	240	5
TAP	70	288	3
TAP	70	336	4
THO	71	0	0	768	C	0	M1
TTP	73	0	6	E	0	M1
TTP	73	24	5	E	0	M1
TTP	73	48	4	E	0	M1
TTP	73	72	3	E	0	M1
TTP	73	96	2	E	0	M1
TTP	73	120	1	E	0	M1
TTP	73	144	0	E	0	M1
TTP	73	168	7	E	0	M1
XTP	73	192	6
XTP	73	216	5
XTP	73	240	4
XTP	73	264	3
XTP	73	288	2
XTP	73	312	1
XTP	73	336	0
XTP	73	360	7
XTP	74	0	6
XTP	74	24	5
XTP	74	48	4
XTP	74	72	3
XTP	74	96	2
XTP	74	120	1
XTP	74	144	0
XTP	74	168	7
BRK	74	192	2
BRK	74	192	6
TAP	75	0	1
TAP	75	0	6
HLD	75	96	2	96
TAP	75	96	3
TAP	75	192	1
TAP	75	288	0
TAP	75	288	1
TAP	76	0	2
TAP	76	0	7
TAP	76	96	5
TAP	76	144	4
HLD	76	192	6	96
TAP	76	288	7
STR	77	0	0
SI_	77	0	0	96	48	4
TAP	77	0	5
STR	77	96	6
SI_	77	96	6	96	48	2
TAP	77	192	3
HLD	77	288	1	96
TAP	78	0	0
TAP	78	24	7
TAP	78	48	6
TAP	78	72	5
TAP	78	96	4
XTP	78	192	2
XTP	78	192	7
TAP	79	0	1
TAP	79	0	6
TAP	79	96	4
HLD	79	96	5	96
TAP	79	192	6
TAP	79	288	0
TAP	79	288	7
XHO	80	0	1	72
XHO	80	72	3	120
XTP	80	144	2
XTP	80	192	2
TAP	80	288	1
TAP	80	288	6
XTP	81	0	0
TAP	81	24	1
TAP	81	48	2
TAP	81	72	3
HLD	81	96	5	96
XTP	81	192	1
TAP	81	216	2
TAP	81	240	3
TAP	81	264	4
HLD	81	288	6	96
XTP	82	0	2
TAP	82	24	3
TAP	82	48	4
TAP	82	72	5
TAP	82	96	6
TAP	82	120	7
TAP	82	144	0
TAP	82	168	1
BRK	82	192	2
BRK	82	192	6
TAP	83	0	6
TAP	83	0	7
TAP	83	96	0
HLD	83	96	5	96
TAP	83	192	4
TAP	83	288	2
TAP	83	288	7
TAP	84	0	1
TAP	84	0	3
TAP	84	96	5
TAP	84	144	4
TAP	84	192	6
TAP	84	288	0
TAP	84	288	1
TAP	85	0	2
STR	85	0	7
SI_	85	0	7	96	48	3
STR	85	96	1
SI_	85	96	1	96	48	5
TAP	85	192	4
HLD	85	288	6	96
TAP	86	0	7
TAP	86	24	0
TAP	86	48	1
TAP	86	72	2
TAP	86	96	3
XTP	86	192	0
XTP	86	192	5
TAP	87	0	3
HLD	87	0	5	96
TAP	87	96	7
TAP	87	192	0
TAP	87	192	1
TAP	87	288	2
TAP	87	288	3
XHO	88	0	5	72
XHO	88	72	4	72
XTP	88	144	6
XTP	88	192	6
TAP	88	288	0
TAP	88	288	6
XTP	89	0	7
TAP	89	24	6
TAP	89	48	5
TAP	89	72	4
HLD	89	96	2	96
XTP	89	192	6
TAP	89	216	5
TAP	89	240	4
TAP	89	264	3
HLD	89	288	1	96
TAP	90	0	5
TAP	90	24	4
TAP	90	48	3
TAP	90	72	2
TAP	90	96	1
TAP	90	120	0
TAP	90	144	7
TAP	90	168	6
BRK	90	192	1
BRK	90	192	5
XTP	91	0	0
XTP	91	0	7
TAP	91	96	1
TAP	91	96	6
TAP	91	192	5
TAP	91	240	4
TAP	91	288	6
HLD	92	0	2	96
TAP	92	96	3
HLD	92	144	2	96
TAP	92	240	7
TAP	92	288	0
TAP	92	288	7
XTP	93	0	1
XTP	93	0	4
TAP	93	96	2
TAP	93	96	3
TAP	93	192	6
TAP	93	240	7
TAP	93	288	5
HLD	94	0	1	96
TAP	94	96	0
HLD	94	144	1	96
TAP	94	240	3
TAP	94	288	2
TAP	94	288	3
XTP	95	0	1
XTP	95	0	6
TAP	95	96	2
TAP	95	96	3
TAP	95	192	5
TAP	95	240	4
TAP	95	288	7
HLD	96	0	2	96
TAP	96	96	3
HLD	96	144	2	96
TAP	96	240	7
TAP	96	288	1
TAP	96	288	7
STR	97	0	0
SI_	97	0	0	96	48	4
STR	97	96	6
SI_	97	96	6	96	48	3
STR	97	192	2
SI_	97	192	2	96	48	7
XST	97	288	5
SCR	97	288	5	96	192	3
TAP	98	0	3
BRK	98	192	0
XTP	99	0	6
XTP	99	0	7
TAP	99	96	0
TAP	99	96	5
TAP	99	192	2
TAP	99	240	3
TAP	99	288	1
HLD	100	0	5	96
TAP	100	96	4
HLD	100	144	5	96
TAP	100	240	0
TAP	100	288	0
TAP	100	288	6
TAP	101	0	2
TAP	101	0	7
TAP	101	96	3
TAP	101	96	4
TAP	101	192	6
TAP	101	240	7
TAP	101	288	4
XTP	102	0	1
TAP	102	48	3
TAP	102	96	1
XTP	102	144	5
TAP	102	192	3
TAP	102	240	5
XHO	102	288	0	96
TAP	103	0	7
TAP	103	96	1
TAP	103	96	6
TAP	103	192	5
TAP	103	240	3
TAP	103	288	7
HLD	104	0	2	96
TAP	104	96	3
TAP	104	144	1
TAP	104	240	6
TAP	104	240	7
TAP	104	288	6
TAP	104	288	7
STR	105	0	0
SI_	105	0	0	96	48	4
STR	105	96	5
SI_	105	96	5	96	48	0
STR	105	192	2
SI_	105	192	2	96	48	5
STR	105	288	6
SCR	105	288	6	96	192	4
XTP	106	0	4
BRK	106	192	0
TAP	107	0	1
TAP	107	0	6
TAP	107	96	5
TAP	107	144	5
TAP	107	192	3
TAP	107	240	3
TAP	107	288	4
TAP	107	336	4
TAP	108	0	2
TAP	108	48	2
TAP	108	96	3
TAP	108	144	3
TAP	108	192	1
TAP	108	288	1
TAP	108	288	4
STR	109	0	0
SI_	109	0	0	96	48	4
TAP	109	0	5
TAP	109	96	5
STR	109	192	1
SI_	109	192	1	96	48	3
TAP	109	192	5
TAP	109	288	5
STR	110	0	0
SI_	110	0	0	96	48	4
TAP	110	0	5
TAP	110	96	5
TAP	110	192	7
TAP	110	288	1
TAP	110	288	7
TAP	111	0	2
STR	111	0	6
SI_	111	0	6	96	48	3
TAP	111	96	2
TAP	111	192	2
STR	111	192	7
SI_	111	192	7	96	48	3
TAP	111	288	2
STR	112	0	0
SI_	112	0	0	96	48	4
TAP	112	0	2
TAP	112	96	2
TAP	112	192	2
XTP	112	288	2
XTP	112	288	7
TAP	113	0	0
TAP	113	48	0
TAP	113	96	2
TAP	113	144	2
TAP	113	192	4
TAP	113	240	4
TAP	113	288	6
TAP	113	336	6
THO	114	0	0	192	C	0	M1
BRK	114	192	7
TAP	115	0	1
TAP	115	0	6
TAP	115	96	0
TAP	115	144	0
TAP	115	192	2
TAP	115	240	2
TAP	115	288	4
TAP	115	336	4
TAP	116	0	6
TAP	116	48	6
TAP	116	96	4
TAP	116	144	4
TAP	116	192	5
TAP	116	288	3
TAP	116	288	6
TAP	117	0	2
STR	117	0	7
SI_	117	0	7	96	48	3
TAP	117	96	2
TAP	117	192	2
STR	117	192	6
SI_	117	192	6	96	48	4
TAP	117	288	2
TAP	118	0	2
STR	118	0	7
SI_	118	0	7	96	48	3
TAP	118	96	2
TAP	118	192	2
TAP	118	288	0
TAP	118	288	6
STR	119	0	1
SI_	119	0	1	96	48	4
TAP	119	0	5
TAP	119	96	5
STR	119	192	0
SI_	119	192	0	96	48	4
TAP	119	192	5
TAP	119	288	5
TAP	120	0	5
STR	120	0	7
SI_	120	0	7	96	48	3
TAP	120	96	5
XTP	120	192	5
XTP	120	288	0
XTP	120	288	5
TAP	121	0	1
TAP	121	48	3
TAP	121	96	2
TAP	121	144	4
TAP	121	192	3
TAP	121	240	5
TAP	121	288	4
TAP	121	336	6
TAP	122	0	0
TAP	122	24	7
TAP	122	48	0
TAP	122	72	7
TAP	122	96	0
TAP	122	120	7
TAP	122	144	0
TAP	122	168	7
BRK	122	192	0
TTP	123	0	0	C	1	M1
TAP	126	0	7
TAP	126	192	0
TAP	126	192	7
XTP	127	0	2
XTP	127	0	6
TAP	127	24	5
TAP	127	48	4
TAP	127	72	3
TAP	127	96	2
TAP	127	120	1
TAP	127	144	0
TAP	127	168	7
TAP	127	192	6
TAP	127	216	5
TAP	127	240	4
TAP	127	264	3
TAP	127	288	2
TAP	127	312	1
TAP	127	336	0
TAP	127	360	7
XTP	128	0	2
XTP	128	0	6
TAP	128	24	3
TAP	128	48	4
TAP	128	72	5
TAP	128	96	6
TAP	128	120	7
TAP	128	144	0
TAP	128	168	1
TAP	128	192	2
TAP	128	216	3
TAP	128	240	4
TAP	128	264	5
TAP	128	288	6
TAP	128	312	7
TAP	128	336	0
TAP	128	360	1
THO	129	0	0	384	C	0	M1
BRK	129	0	2
TAP	130	192	0
TAP	130	240	7
TAP	130	288	0
TAP	131	0	6
TAP	131	0	7
TAP	131	96	0
HLD	131	96	5	96
TAP	131	192	4
TAP	131	288	2
TAP	131	288	7
TAP	132	0	1
TAP	132	0	3
TAP	132	96	5
TAP	132	144	4
HLD	132	192	6	96
TAP	132	288	7
STR	133	0	0
SI_	133	0	0	96	48	4
STR	133	96	6
SI_	133	96	6	96	48	2
STR	133	192	3
SI_	133	192	3	96	48	7
XTP	133	288	7
TAP	134	0	0
TAP	134	0	6
TAP	134	24	1
TAP	134	24	5
TAP	134	48	2
TAP	134	48	4
TAP	134	72	3
BRK	134	192	2
BRK	134	192	7
TAP	135	0	4
HLD	135	0	6	96
TAP	135	96	7
TAP	135	192	0
TAP	135	192	1
TAP	135	288	3
TAP	135	288	6
HLD	136	0	2	72
HLD	136	72	3	72
TAP	136	144	1
TAP	136	192	1
XTP	136	288	0
XTP	136	288	7
XTP	137	0	1
TAP	137	24	2
TAP	137	48	3
TAP	137	72	4
HLD	137	96	6	96
XTP	137	192	2
TAP	137	216	3
TAP	137	240	4
TAP	137	264	5
HLD	137	288	7	96
TTP	138	0	4	E	0	M1
TTP	138	24	5	E	0	M1
TTP	138	48	6	E	0	M1
TTP	138	72	7	E	0	M1
TTP	138	96	0	E	0	M1
TTP	138	120	1	E	0	M1
TTP	138	144	2	E	0	M1
TTP	138	168	3	E	0	M1
TTP	138	192	0	C	0	M1
STR	139	0	6
SI_	139	0	6	96	48	4
TAP	139	48	6
STR	139	96	0
SI_	139	96	0	96	48	2
TAP	139	144	0
STR	139	192	6
SI_	139	192	6	96	48	4
TAP	139	240	6
STR	139	288	0
SI_	139	288	0	96	48	2
TAP	139	336	0
STR	140	0	6
SI_	140	0	6	96	48	4
TAP	140	48	6
XTP	140	96	0
TTP	140	192	0	C	1	M1
STR	141	0	1
SI_	141	0	1	96	48	3
TAP	141	48	1
STR	141	96	7
SI_	141	96	7	96	48	5
TAP	141	144	7
STR	141	192	1
SI_	141	192	1	96	48	3
TAP	141	240	1
STR	141	288	7
SI_	141	288	7	96	48	5
TAP	141	336	7
STR	142	0	1
SI_	142	0	1	96	48	3
TAP	142	48	1
XTP	142	96	7
TTP	142	192	0	C	1	M1
STR	143	0	0
SI_	143	0	0	96	48	3
TAP	143	48	0
STR	143	96	7
SI_	143	96	7	96	48	4
TAP	143	144	7
STR	143	192	0
SI_	143	192	0	96	48	3
TAP	143	240	0
STR	143	288	7
SI_	143	288	7	96	48	4
TAP	143	336	7
STR	144	0	0
SI_	144	0	0	96	48	3
TAP	144	48	0
XTP	144	96	7
TTP	144	192	0	C	1	M1
TTP	145	0	0	C	1	M1
XTP	145	0	7
TAP	145	24	6
TAP	145	48	5
TAP	145	72	4
TTP	145	192	0	C	1	M1
XTP	145	192	1
TAP	145	216	2
TAP	145	240	3
TAP	145	264	4
TTP	146	0	0	C	1	M1
XTP	146	0	6
TAP	146	24	5
TAP	146	48	4
TAP	146	72	3
TAP	146	96	2
TAP	146	120	1
TAP	146	144	0
TAP	146	168	7
BRK	146	192	6
THO	147	0	0	384	C	0	M1
TAP	149	0	0
TAP	149	24	1
TAP	149	48	2
TAP	149	72	3
STR	149	96	0
SI_	149	96	0	96	48	4
TAP	149	120	7
TAP	149	144	6
TAP	149	168	5
TTP	149	192	0	C	1	M1
TAP	150	0	7
TAP	150	24	6
TAP	150	48	5
TAP	150	72	4
STR	150	96	7
SI_	150	96	7	96	48	3
TAP	150	120	0
TAP	150	144	1
TAP	150	168	2
TTP	150	192	0	C	1	M1
XTP	151	0	1
TAP	151	24	2
TAP	151	48	3
TAP	151	72	4
XTP	151	96	0
TAP	151	120	1
TAP	151	144	2
TAP	151	168	3
XTP	151	192	6
TAP	151	216	5
TAP	151	240	4
TAP	151	264	3
XTP	151	288	7
TAP	151	312	6
TAP	151	336	5
TAP	151	360	4
TTP	152	0	1	E	0	M1
TTP	152	24	1	B	0	M1
TTP	152	48	2	B	0	M1
TTP	152	72	3	E	0	M1
TTP	152	96	7	E	0	M1
TTP	152	120	6	B	0	M1
TTP	152	144	5	B	0	M1
TTP	152	168	5	E	0	M1
XTP	152	192	7
TAP	152	216	6
TAP	152	240	5
TAP	152	264	4
XTP	152	288	0
TAP	152	312	1
TAP	152	336	2
TAP	152	360	3
TTP	153	0	0	C	1	M1
TTP	156	0	3	E	0	M1
TTP	156	96	2	E	0	M1
TTP	156	192	1	E	0	M1
TTP	156	288	0	E	0	M1
TTP	157	0	7	E	0	M1
TTP	157	96	2	E	0	M1
TTP	157	96	6	E	0	M1
TAP	157	192	3
TAP	157	240	3
TAP	157	288	4
TAP	157	336	4
TAP	158	0	2
TAP	158	24	5
TAP	158	48	2
TAP	158	72	5
TAP	158	96	1
TAP	158	120	6
TAP	158	144	1
TAP	158	168	6
TAP	158	192	0
TAP	158	216	7
TAP	158	240	1
TAP	158	264	6
STR	158	288	0
SI_	158	288	0	96	48	4
TAP	158	312	7
TAP	158	336	1
TAP	158	360	6

T_REC_TAP	640
T_REC_BRK	25
T_REC_XTP	105
T_REC_HLD	41
T_REC_XHO	7
T_REC_STR	73
T_REC_BST	1
T_REC_XST	4
T_REC_TTP	106
T_REC_THO	6
T_REC_SLD	78
T_REC_ALL	1086
T_NUM_TAP	928
T_NUM_BRK	26
T_NUM_HLD	54
T_NUM_SLD	78
T_NUM_ALL	1086
T_JUDGE_TAP	954
T_JUDGE_HLD	102
T_JUDGE_SLD	78
T_JUDGE_ALL	1134
TTM_EACHPAIRS	135
TTM_SCR_TAP	464000
TTM_SCR_BRK	67600
TTM_SCR_HLD	54000
TTM_SCR_SLD	117000
TTM_SCR_ALL	702600
TTM_SCR_S	679000
TTM_SCR_SS	700000
TTM_RAT_ACV	10037

